↑↓Torrent.by
Поиск
Логин: Регистрация
Пароль: Восстановить пароль
Загрузка...

Дамбо / Dumbo (2019) BDRip-AVC от New-Team | D

Скачать dambo-dumbo-2019-bdrip-avc-ot-new-team-d.torrent
U Магнитная ссылка Размер: 2.19 GB Раздают: 82 Качают: 10 Добавлен: 2019-06-29 05:33:25
Дамбо / Dumbo (2019) BDRip-AVC от New-Team | D

Дамбо
Dumbo

«In 2019, a beloved tale will take you to new heights»

Страна: США
Жанр:  фэнтези, семейный
Год выпуска: 2019
Продолжительность: 01:51:56

Перевод: Профессиональный (полное дублирование) [iTunes]
Субтитры: русские (форсированные, полные), английские (полные, SDH)
Оригинальная аудиодорожка: английский

Режиссер: Тим Бёртон / Tim Burton

В ролях: Колин Фаррелл, Майкл Китон, Дэнни ДеВито, Ева Грин, Алан Аркин, Нико Паркер, Finley Hobbins, Рошан Сет, Ларс Айдингер, Деобиа Опарей, Джозеф Гатт, Мигель Муньос Сегура

Описание: Цирковой импресарио Макс Медичи назначает бывшую звезду цирка Холта Фэрриера и его детей Милли и Джо опекунами новорожденного слонёнка, чьи невероятно большие уши сразу становятся предметом для постоянных шуток и насмешек коллег Холта по цеху. Внезапно узнав, что Дамбо умеет летать, владелец цирка решает нажиться на необычных способностях слонёнка. К делу подключается энергичный предприниматель В. А. Вэндевер, который решает сделать из малыша Дамбо главную звезду своего нового грандиозного развлекательного предприятия «Сказочная страна».

Релиз:

Автор рипа: stalkerok

Семпл

Качество видео: BDRip-AVC | Исходник: Dumbo.2019.BDREMUX.1080p.seleZen
Формат видео: MKV
Видео кодек: AVC
Аудио кодек: AC3
Видео: AVC, 1970 Кбит/сек, 1058x572 (1.85:1), 23,976 кадр/сек
Аудио №1: AC3, 384 Кбит/сек, 48 КГц, 5.1 - русский
Аудио №2: AC3, 448 Кбит/сек, 48 КГц, 5.1 - английский
Навигация по главам: есть


[+] x264/MediaInfo


---[Information] [28.06.2019 13:40:53] x264 [info]: frame I:1534  Avg QP:16.65  size: 62531
---[Information] [28.06.2019 13:40:53] x264 [info]: frame P:34333 Avg QP:18.95  size: 22506
---[Information] [28.06.2019 13:40:53] x264 [info]: frame B:125168 Avg QP:20.83  size:  6276

General
Unique ID                                : 85605385614304880485670434532974671918 (0x4066FF5FCCC6DAB72BDE07B11D90382E)
Complete name                            : C:tempDumboDumbo.2019.BDRip.x264.Rus.Eng.stalkerok.New-Team.mkv
Format                                   : Matroska
Format version                           : Version 4
File size                                : 2.19 GiB
Duration                                 : 1 h 51 min
Overall bit rate                         : 2 805 kb/s
Movie name                               : Dumbo (2019) | Rip by stalkerok
Encoded date                             : UTC 2019-06-28 10:54:54
Writing application                      : mkvmerge v33.1.0 ('Primrose') 64-bit
Writing library                          : libebml v1.3.7 + libmatroska v1.5.0

Video
ID                                       : 1
Format                                   : AVC
Format/Info                              : Advanced Video Codec
Format profile                           : High@L4.1
Format settings                          : CABAC / 12 Ref Frames
Format settings, CABAC                   : Yes
Format settings, RefFrames               : 12 frames
Codec ID                                 : V_MPEG4/ISO/AVC
Duration                                 : 1 h 51 min
Bit rate                                 : 1 970 kb/s
Width                                    : 1 058 pixels
Height                                   : 572 pixels
Display aspect ratio                     : 1.85:1
Frame rate mode                          : Constant
Frame rate                               : 23.976 FPS
Color space                              : YUV
Chroma subsampling                       : 4:2:0
Bit depth                                : 8 bits
Scan type                                : Progressive
Bits/(Pixel*Frame)                       : 0.136
Stream size                              : 1.54 GiB (70%)
Title                                    : Dumbo (2019) | Rip by stalkerok
Writing library                          : x264 core 157 r2969 d4099dd
Encoding settings                        : cabac=1 / ref=12 / deblock=1:-3:-2 / analyse=0x3:0x133 / me=umh / subme=10 / psy=1 / psy_rd=1.00:0.00 / mixed_ref=1 / me_range=32 / chroma_me=1 / trellis=2 / 8x8dct=1 / cqm=0 / deadzone=21,11 / fast_pskip=0 / chroma_qp_offset=-2 / threads=12 / lookahead_threads=3 / sliced_threads=0 / nr=0 / decimate=1 / interlaced=0 / bluray_compat=0 / constrained_intra=0 / bframes=14 / b_pyramid=2 / b_adapt=2 / b_bias=0 / direct=3 / weightb=1 / open_gop=0 / weightp=2 / keyint=240 / keyint_min=23 / scenecut=40 / intra_refresh=0 / rc_lookahead=60 / rc=crf / mbtree=0 / crf=19.0 / qcomp=0.65 / qpmin=0 / qpmax=69 / qpstep=4 / vbv_maxrate=50000 / vbv_bufsize=62500 / crf_max=0.0 / nal_hrd=none / filler=0 / ip_ratio=1.40 / pb_ratio=1.30 / aq=3:0.80 / zones=149672,161034,q=32
Default                                  : Yes
Forced                                   : No

Audio #1
ID                                       : 2
Format                                   : AC-3
Format/Info                              : Audio Coding 3
Commercial name                          : Dolby Digital
Codec ID                                 : A_AC3
Duration                                 : 1 h 51 min
Bit rate mode                            : Constant
Bit rate                                 : 384 kb/s
Channel(s)                               : 6 channels
Channel layout                           : L R C LFE Ls Rs
Sampling rate                            : 48.0 kHz
Frame rate                               : 31.250 FPS (1536 SPF)
Bit depth                                : 16 bits
Compression mode                         : Lossy
Stream size                              : 307 MiB (14%)
Language                                 : Russian
Service kind                             : Complete Main
Default                                  : Yes
Forced                                   : No

Audio #2
ID                                       : 3
Format                                   : AC-3
Format/Info                              : Audio Coding 3
Commercial name                          : Dolby Digital
Codec ID                                 : A_AC3
Duration                                 : 1 h 51 min
Bit rate mode                            : Constant
Bit rate                                 : 448 kb/s
Channel(s)                               : 6 channels
Channel layout                           : L R C LFE Ls Rs
Sampling rate                            : 48.0 kHz
Frame rate                               : 31.250 FPS (1536 SPF)
Bit depth                                : 16 bits
Compression mode                         : Lossy
Stream size                              : 359 MiB (16%)
Language                                 : English
Service kind                             : Complete Main
Default                                  : No
Forced                                   : No

Text #1
ID                                       : 4
Format                                   : UTF-8
Codec ID                                 : S_TEXT/UTF8
Codec ID/Info                            : UTF-8 Plain Text
Duration                                 : 1 h 41 min
Bit rate                                 : 1 b/s
Count of elements                        : 17
Stream size                              : 838 Bytes (0%)
Title                                    : Forced
Language                                 : Russian
Default                                  : Yes
Forced                                   : No

Text #2
ID                                       : 5
Format                                   : UTF-8
Codec ID                                 : S_TEXT/UTF8
Codec ID/Info                            : UTF-8 Plain Text
Duration                                 : 1 h 51 min
Bit rate                                 : 57 b/s
Count of elements                        : 1172
Stream size                              : 47.2 KiB (0%)
Title                                    : Full
Language                                 : Russian
Default                                  : No
Forced                                   : No

Text #3
ID                                       : 6
Format                                   : UTF-8
Codec ID                                 : S_TEXT/UTF8
Codec ID/Info                            : UTF-8 Plain Text
Duration                                 : 1 h 41 min
Bit rate                                 : 41 b/s
Count of elements                        : 1209
Stream size                              : 31.1 KiB (0%)
Title                                    : Full
Language                                 : English
Default                                  : No
Forced                                   : No

Text #4
ID                                       : 7
Format                                   : UTF-8
Codec ID                                 : S_TEXT/UTF8
Codec ID/Info                            : UTF-8 Plain Text
Duration                                 : 1 h 43 min
Bit rate                                 : 51 b/s
Count of elements                        : 1565
Stream size                              : 39.4 KiB (0%)
Title                                    : Full SDH
Language                                 : English
Default                                  : No
Forced                                   : No

Menu
00:00:00.000                             : en:Глава 01
00:02:49.461                             : en:Глава 02
00:06:46.072                             : en:Глава 03
00:11:23.766                             : en:Глава 04
00:16:33.993                             : en:Глава 05
00:19:20.493                             : en:Глава 06
00:26:08.233                             : en:Глава 07
00:27:46.331                             : en:Глава 08
00:31:07.783                             : en:Глава 09
00:35:09.024                             : en:Глава 10
00:40:44.984                             : en:Глава 11
00:46:44.927                             : en:Глава 12
00:50:23.938                             : en:Глава 13
00:57:15.265                             : en:Глава 14
01:01:53.126                             : en:Глава 15
01:07:18.785                             : en:Глава 16
01:10:11.666                             : en:Глава 17
01:14:47.858                             : en:Глава 18
01:18:05.055                             : en:Глава 19
01:27:55.896                             : en:Глава 20
01:37:09.532                             : en:Глава 21
01:39:41.100                             : en:Глава 22
01:44:02.611                             : en:Глава 23




Скриншоты:
[+] Всего файлов в раздаче - 1:
Dumbo.2019.BDRip.x264.Rus.Eng.stalkerok.New-Team.mkv2.19 GB

Показать еще раздачи по запросу дамбо:
2019-07-03 U Дамбо / Dumbo (2019) BDRip-HEVC 1080p от HANNIBAL | iTunes 11.30 GB ↑ 44 ↓ 25
2019-07-01 U Дамбо / Dumbo (2019) BDRip 720p от Scarabey | iTunes 6.16 GB ↑ 118 ↓ 59
2019-06-30 U Дамбо / Dumbo (2019) BDRip 720p от k.e.n & MegaPeer | D | iTunes 4.32 GB ↑ 329 ↓ 44
2019-06-29 U Дамбо / Dumbo (2019) BDRip от Twister & ExKinoRay | iTunes 1.41 GB ↑ 95 ↓ 20
2019-06-29 U Дамбо / Dumbo (2019) HDRip от Scarabey | iTunes 744.86 MB ↑ 119 ↓ 18
2019-06-29 U Дамбо / Dumbo (2019) BDRip от Twister & ExKinoRay | iTunes 2.13 GB ↑ 177 ↓ 48
2019-06-29 U Дамбо / Dumbo (2019) HDRip от Scarabey | iTunes 1.40 GB ↑ 67 ↓ 14

Отзывы
Зарегистрируйтесь чтобы добавить комментарий.
Обратная связь
Copyleft ©