↑↓Torrent.by
Поиск
Логин: Регистрация
Пароль: Восстановить пароль
Загрузка...

Алита: Боевой ангел / Alita: Battle Angel (2019) WEBRip 1080p | CВ Студия

Скачать alita-boevoy-angel-battle-2019-webrip-1080p-cv-studiya.torrent
U Магнитная ссылка Размер: 3.90 GB Раздают: 505 Качают: 301 Добавлен: 2019-06-30 05:37:30
Алита: Боевой ангел / Alita: Battle Angel (2019) WEBRip 1080p | CВ Студия

Название: Алита: Боевой ангел
Оригинальное название: Alita: Battle Angel
Год выхода: 2019
Жанр: Фантастика, боевик, триллер, приключения
Режиссер: Роберт Родригес
В ролях: Роза Салазар, Кристоф Вальц, Дженнифер Коннелли, Махершала Али, Эд Скрейн, Джеки Эрл Хейли, Кин Джонсон, Хорхе Лендеборг мл., Лана Кондор, Идара Виктор

О фильме:
Действие фильма происходит через 300 лет после Великой войны в XXVI веке. Доктор Идо находит останки женщины-киборга. После починки киборг ничего не помнит, но обнаруживает, что в состоянии пользоваться боевыми приемами киборгов. Начинаются поиски утерянных воспоминаний.

 
Страна: США
Студия: Twentieth Century Fox, Lightstorm Entertainment, Troublemaker Studios
Продолжительность: 02:01:47
Перевод: Профессиональный многоголосый закадровый (CВ Студия)
Без рекламы

Файл
Качество: WEBRip 1080p | CВ Студия
Видео: AVC/H.264, 1920x1080, 4195 Кbps, 23,976 fps
Звук:
Аудио 1: AC3, 2 ch, 192 Kbps - Русский
Аудио 2: AC3, 2 ch, 192 Kbps - Английский
Субтитры: Английские


[+] Mediainfo
Общее
Уникальный идентификатор                 : 204258314823085254759881482457149721118 (0x99AAB8721588D56C11166172D761CA1E)
Полное имя                               : Alita_Battle Angel.2019.WEBRip.1080p.mkv
Формат                                   : Matroska
Версия формата                           : Version 4
Размер файла                             : 3,90 Гбайт
Продолжительность                        : 2 ч. 1 м.
Общий поток                              : 4581 Кбит/сек
Дата кодирования                         : UTC 2019-06-29 22:16:56
Программа кодирования                    : mkvmerge v23.0.0 ('The Bride Said No') 64-bit
Библиотека кодирования                   : libebml v1.3.6 + libmatroska v1.4.9

Видео
Идентификатор                            : 1
Формат                                   : AVC
Формат/Информация                        : Advanced Video Codec
Профиль формата                          : High@L4.1
Настройки формата                        : CABAC / 4 Ref Frames
Параметр CABAC формата                   : Да
Параметр RefFrames формата               : 4 кадра
Идентификатор кодека                     : V_MPEG4/ISO/AVC
Продолжительность                        : 2 ч. 1 м.
Битрейт                                  : 4195 Кбит/сек
Ширина                                   : 1920 пикселей
Высота                                   : 1080 пикселей
Соотношение сторон                       : 16:9
Режим частоты кадров                     : Постоянный
Частота кадров                           : 23,976 (24000/1001) кадра/сек
Цветовое пространство                    : YUV
Субдискретизация насыщенности            : 4:2:0
Битовая глубина                          : 8 бит
Тип развёртки                            : Прогрессивная
Бит/(Пиксели*Кадры)                      : 0.084
Размер потока                            : 3,57 Гбайт (92%)
Библиотека кодирования                   : x264 core 142 r2479 dd79a61
Настройки программы                      : cabac=1 / ref=4 / deblock=1:0:0 / analyse=0x3:0x133 / me=umh / subme=10 / psy=1 / psy_rd=1.00:0.00 / mixed_ref=1 / me_range=24 / chroma_me=1 / trellis=2 / 8x8dct=1 / cqm=0 / deadzone=21,11 / fast_pskip=1 / chroma_qp_offset=-2 / threads=12 / lookahead_threads=2 / sliced_threads=0 / nr=0 / decimate=1 / interlaced=0 / bluray_compat=0 / constrained_intra=0 / bframes=8 / b_pyramid=2 / b_adapt=2 / b_bias=0 / direct=3 / weightb=1 / open_gop=0 / weightp=2 / keyint=240 / keyint_min=24 / scenecut=40 / intra_refresh=0 / rc_lookahead=60 / rc=2pass / mbtree=1 / bitrate=4195 / ratetol=1.0 / qcomp=0.60 / qpmin=0 / qpmax=69 / qpstep=4 / cplxblur=20.0 / qblur=0.5 / vbv_maxrate=62500 / vbv_bufsize=78125 / nal_hrd=none / filler=0 / ip_ratio=1.40 / aq=1:1.00
Язык                                     : English
Default                                  : Да
Forced                                   : Нет
Цветовой диапазон                        : Limited
Основные цвета                           : BT.709
Характеристики трансфера                 : BT.709
Коэффициенты матрицы                     : BT.709

Аудио #1
Идентификатор                            : 2
Формат                                   : AC-3
Формат/Информация                        : Audio Coding 3
Коммерческое название                    : Dolby Digital
Идентификатор кодека                     : A_AC3
Продолжительность                        : 2 ч. 1 м.
Вид битрейта                             : Постоянный
Битрейт                                  : 192 Кбит/сек
Каналы                                   : 2 канала
ChannelLayout                            : L R
Частота                                  : 48,0 КГц
Частота кадров                           : 31,250 кадров/сек (1536 SPF)
Битовая глубина                          : 16 бит
Метод сжатия                             : С потерями
Задержка видео                           : -83 мс.
Размер потока                            : 167 Мбайт (4%)
Заголовок                                : MVO [СВ Студия]
Язык                                     : Russian
ServiceKind                              : Complete Main
Default                                  : Да
Forced                                   : Нет

Аудио #2
Идентификатор                            : 3
Формат                                   : AC-3
Формат/Информация                        : Audio Coding 3
Коммерческое название                    : Dolby Digital
Идентификатор кодека                     : A_AC3
Продолжительность                        : 2 ч. 1 м.
Вид битрейта                             : Постоянный
Битрейт                                  : 192 Кбит/сек
Каналы                                   : 2 канала
ChannelLayout                            : L R
Частота                                  : 48,0 КГц
Частота кадров                           : 31,250 кадров/сек (1536 SPF)
Битовая глубина                          : 16 бит
Метод сжатия                             : С потерями
Задержка видео                           : -83 мс.
Размер потока                            : 167 Мбайт (4%)
Язык                                     : English
ServiceKind                              : Complete Main
Default                                  : Нет
Forced                                   : Нет

Текст
Идентификатор                            : 4
Формат                                   : UTF-8
Идентификатор кодека                     : S_TEXT/UTF8
Идентификатор кодека/Информация          : UTF-8 Plain Text
Продолжительность                        : 1 ч. 55 м.
Битрейт                                  : 41 бит/сек
ElementCount                             : 1347
Размер потока                            : 34,9 Кбайт (0%)
Язык                                     : English
Default                                  : Нет
Forced                                   : Нет  



Скриншоты:
[+] Всего файлов в раздаче - 1:
Alita_Battle Angel.2019.WEBRip.1080p.mkv3.90 GB

Показать еще раздачи по запросу алита:
2019-07-20 U Алита: Боевой ангел / Alita: Battle Angel (2019) WEB-DLRip от Scarabey | Лицензия | Open Matte 1.45 GB ↑ 35 ↓ 13
2019-07-19 U Алита: Боевой ангел / Alita: Battle Angel (2019) BDRip 720p от Scarabey | Лицензия 6.06 GB ↑ 86 ↓ 61
2019-07-18 U Алита: Боевой ангел / Alita: Battle Angel (2019) BDRip от Twister & ExKinoRay | Локализованная версия | Лицензия 2.18 GB ↑ 63 ↓ 27
2019-07-18 U Алита: Боевой ангел / Alita: Battle Angel (2019) Blu-Ray EUR 1080p | 3D-Video | Лицензия 44.69 GB ↑ 36 ↓ 10
2019-07-18 U Алита: Боевой ангел / Alita: Battle Angel (2019) BDRip-AVC от HELLYWOOD | Локализованная версия | Лицензия 2.91 GB ↑ 75 ↓ 15
2019-07-17 U Алита: Боевой ангел / Alita: Battle Angel (2019) BDRip-AVC от HELLYWOOD | Локализованная версия | Лицензия 1.46 GB ↑ 60 ↓ 29
2019-07-16 U Алита: Боевой ангел / Alita: Battle Angel (2019) UHD BDRemux 2160p от ExKinoRay | 4K | HDR | D, P | Локализованная версия | Лицензия 41.88 GB ↑ 47 ↓ 121

Отзывы
Зарегистрируйтесь чтобы добавить комментарий.
Обратная связь
Copyleft ©