↑↓Torrent.by
Поиск
Логин: Регистрация
Пароль: Восстановить пароль
Загрузка...

Аполлон-11 / Apollo 11 (2019) BDRip 720p | Jaskier

Скачать apollon-11-apollo-2019-bdrip-720p-jaskier.torrent
U Магнитная ссылка Размер: 6.67 GB Раздают: 38 Качают: 38 Добавлен: 2019-06-30 05:38:16
Аполлон-11 / Apollo 11 (2019) BDRip 720p | Jaskier

Название: Аполлон-11
Оригинальное название: Apollo 11
Год выпуска: 2019
Жанр:  Документальный, история
Режиссер: Тодд Дуглас Миллер
В ролях: Базз Олдрин, Джоан Энн Арчер, Джанет Армстронг, Джек Бенни, Джонни Карсон, Клиффорд Э. Чарльзуорт, Майкл Коллинз, Уолтер Кронкайт, Чарльз Дьюк, Линдон Джонсон

О фильме: Документальный фильм рассказывает о миссии пилотируемого космического корабля «Аполлон-11», под руководством командира Нила Армстронга, который в 1969 году совершил посадку на Луне. В фильм включены редкие кадры, интервью очевидцев и участников.

Страна: США
Студия: CNN Films, Statement Pictures
Продолжительность: 01:33:00
Перевод: Профессиональный (многоголосый, закадровый) Jaskier

Файл
Формат: MKV
Качество: BDRip 720p
Видео: MPEG-4 AVC, 8122 Кбит/с, 23.976 fps, 1280х584
Аудио#1: Русский (AC3, 6 ch, 640 Кбит/с) | Jaskier
Аудио#2: Английский (DTS, 6 ch, 1509 Кбит/с) | Original
Субтитры: Английские

***Примечание: Без рекламы
***Релиз: mike7025


[+] Инфо-файл
General
Unique ID                                : 244144594121257349251528211620030954994 (0xB7AC89D85F7BF93CB6E8D051E259BDF2)
Complete name                            : Apollo.11.2019.Doc.BDRip.720p.mkv
Format                                   : Matroska
Format version                           : Version 4 / Version 2
File size                                : 6.67 GiB
Duration                                 : 1 h 33 min
Overall bit rate                         : 10.3 Mb/s
Encoded date                             : UTC 2019-06-28 19:18:59
Writing application                      : mkvmerge v20.0.0 ('I Am The Sun') 64-bit
Writing library                          : libebml v1.3.5 + libmatroska v1.4.8

Video
ID                                       : 1
Format                                   : AVC
Format/Info                              : Advanced Video Codec
Format profile                           : High@L4.1
Format settings                          : CABAC / 11 Ref Frames
Format settings, CABAC                   : Yes
Format settings, RefFrames               : 11 frames
Codec ID                                 : V_MPEG4/ISO/AVC
Duration                                 : 1 h 33 min
Bit rate                                 : 8 122 kb/s
Width                                    : 1 280 pixels
Height                                   : 584 pixels
Display aspect ratio                     : 2.2:1
Frame rate mode                          : Constant
Frame rate                               : 23.976 (24000/1001) FPS
Color space                              : YUV
Chroma subsampling                       : 4:2:0
Bit depth                                : 8 bits
Scan type                                : Progressive
Bits/(Pixel*Frame)                       : 0.453
Stream size                              : 5.28 GiB (79%)
Writing library                          : x264 core 157 r2938 2b00a84 TnP@MTeam Mod
Encoding settings                        : cabac=1 / ref=11 / deblock=1:-3:-3 / analyse=0x3:0x133 / me=umh / subme=10 / psy=1 / psy_rd=1.05:0.00 / mixed_ref=1 / me_range=32 / chroma_me=1 / trellis=2 / 8x8dct=1 / cqm=0 / deadzone=21,11 / fast_pskip=0 / chroma_qp_offset=-2 / threads=12 / lookahead_threads=2 / sliced_threads=0 / nr=0 / decimate=0 / interlaced=0 / bluray_compat=0 / constrained_intra=0 / bframes=8 / b_pyramid=2 / b_adapt=2 / b_bias=0 / direct=3 / weightb=1 / open_gop=0 / weightp=2 / keyint=250 / keyint_min=24 / scenecut=40 / intra_refresh=0 / rc_lookahead=250 / rc=crf / mbtree=0 / crf=16.5 / qcomp=0.60 / qpmin=0 / qpmax=69 / qpstep=4 / vbv_maxrate=62500 / vbv_bufsize=78125 / crf_max=0.0 / nal_hrd=none / filler=0 / ip_ratio=1.30 / pb_ratio=1.20 / aq=3:0.80
Language                                 : English
Default                                  : Yes
Forced                                   : No
Color range                              : Limited
Color primaries                          : BT.709
Matrix coefficients                      : BT.709

Audio #1
ID                                       : 2
Format                                   : AC-3
Format/Info                              : Audio Coding 3
Codec ID                                 : A_AC3
Duration                                 : 1 h 33 min
Bit rate mode                            : Constant
Bit rate                                 : 640 kb/s
Channel(s)                               : 6 channels
Channel positions                        : Front: L C R, Side: L R, LFE
Sampling rate                            : 48.0 kHz
Frame rate                               : 31.250 FPS (1536 SPF)
Bit depth                                : 16 bits
Compression mode                         : Lossy
Stream size                              : 426 MiB (6%)
Title                                    : MVO Jaskier
Language                                 : Russian
Service kind                             : Complete Main
Default                                  : Yes
Forced                                   : No

Audio #2
ID                                       : 3
Format                                   : DTS
Format/Info                              : Digital Theater Systems
Codec ID                                 : A_DTS
Duration                                 : 1 h 33 min
Bit rate mode                            : Constant
Bit rate                                 : 1 509 kb/s
Channel(s)                               : 6 channels
Channel positions                        : Front: L C R, Side: L R, LFE
Sampling rate                            : 48.0 kHz
Frame rate                               : 93.750 FPS (512 SPF)
Bit depth                                : 24 bits
Compression mode                         : Lossy
Stream size                              : 1 004 MiB (15%)
Language                                 : English
Default                                  : No
Forced                                   : No

Text
ID                                       : 4
Format                                   : UTF-8
Codec ID                                 : S_TEXT/UTF8
Codec ID/Info                            : UTF-8 Plain Text
Duration                                 : 1 h 29 min
Bit rate                                 : 79 b/s
Count of elements                        : 1591
Stream size                              : 52.1 KiB (0%)
Language                                 : English
Default                                  : No
Forced                                   : No

Menu
00:00:00.000                             : en:Chapter 01
00:11:24.058                             : en:Chapter 02
00:24:39.561                             : en:Chapter 03
00:37:58.276                             : en:Chapter 04
00:45:36.651                             : en:Chapter 05
00:53:25.786                             : en:Chapter 06
01:18:24.408                             : en:Chapter 07
01:29:26.444                             : en:Chapter 08



Скриншоты:
[+] Всего файлов в раздаче - 1:
Apollo.11.2019.Doc.BDRip.720p.mkv6.67 GB

Похожие раздачи по запросу - аполлон:
2019-07-19 U Аполлон-11 / Apollo 11 (2019) BDRip от MegaPeer | Jaskier 1.46 GB ↑ 35 ↓ 7
2019-07-04 U Аполлон-11 / Apollo 11 (2019) BDRip 1080p | Jaskier 13.09 GB ↑ 46 ↓ 20

Отзывы
Зарегистрируйтесь чтобы добавить комментарий.
Обратная связь
Copyleft ©