↑↓Torrent.by
Поиск
Логин: Регистрация
Пароль: Восстановить пароль
Загрузка...

Тобол (2019) BDRip 1080p от OlLanDGroup | Лицензия

Скачать tobol-2019-bdrip-1080p-ot-ollandgroup-licenziya.torrent
U Магнитная ссылка Размер: 9.01 GB Раздают: 199 Качают: 117 Добавлен: 2019-06-30 18:58:17
Тобол (2019) BDRip 1080p от OlLanDGroup | Лицензия

Оригинальное название: Тобол
Год выпуска: 2019
Жанр:  История, драма
Выпущено: Россия, Yellow, Black & White
Режиссер: Игорь Зайцев
В ролях: Дмитрий Назаров, Александр Лазарев мл., Юлия Макарова, Евгений Дятлов, Дмитрий Дюжев, Павел Табаков, Илья Маланин, Еркебулан Даиров, Андрей Бурковский, Агата Муцениеце

О фильме: Молодой офицер новой гвардии Петра I Иван Демарин по заданию царя отправляется в глубину Сибири — в пограничный Тобольск. Здесь Иван встречает свою первую любовь и вместе со своим полком оказывается втянутым в заговор местных князей, охотящихся за золотом Яркенда. Его крепость окружена полчищами диких джунгар и помощи ждать неоткуда…

Качество: BDRip (1080p)
Видео: MPEG-4 AVC, 9773 Kбит/с, 1920x804, 23.976 кадр/с
Аудио: Русский (AC3, 6 ch, 640 Кбит/с), (DTS, 6 ch, 1509 Кбит/с)
Размер: 9.01 ГБ
Продолжительность: 01:48:14
Язык: Русский

Озвучивание - (Лицензия)
Сохранены оригинальные чаптеры как на Blu-Ray.

Релиз:  Rip by:


[+] x264

x264 [info]: frame I:1231  Avg QP:14.98  size:217211
x264 [info]: frame P:38944 Avg QP:17.99  size: 91147
x264 [info]: frame B:115536 Avg QP:20.11  size: 35547
x264 [info]: consecutive B-frames:  4.1%  5.5% 13.1% 19.9% 15.3% 28.3%  7.4%  5.4%  0.5%  0.2%  0.3%
x264 [info]: mb I  I16..4: 10.7% 77.5% 11.8%
x264 [info]: mb P  I16..4:  0.8% 24.5%  1.7%  P16..4: 26.5% 30.6%  9.8%  1.3%  0.1%    skip: 4.8%
x264 [info]: mb B  I16..4:  0.1%  2.5%  0.3%  B16..8: 37.7% 21.3%  3.9%  direct: 6.4%  skip:27.9%  L0:41.9% L1:45.9% BI:12.2%
x264 [info]: 8x8 transform intra:88.7% inter:59.4%
x264 [info]: direct mvs  spatial:97.1% temporal:2.9%
x264 [info]: coded y,uvDC,uvAC intra: 92.6% 66.7% 30.9% inter: 34.8% 18.4% 3.7%
x264 [info]: i16 v,h,dc,p: 34%  9% 10% 46%
x264 [info]: i8 v,h,dc,ddl,ddr,vr,hd,vl,hu:  8%  7% 11% 10% 14% 12% 13% 11% 13%
x264 [info]: i4 v,h,dc,ddl,ddr,vr,hd,vl,hu: 29%  6%  6%  7% 12% 11% 11%  8%  9%
x264 [info]: i8c dc,h,v,p: 31% 33% 20% 17%
x264 [info]: Weighted P-Frames: Y:5.2% UV:3.4%
x264 [info]: ref P L0: 51.0% 11.4% 20.8%  8.1%  7.1%  1.6%  0.1%
x264 [info]: ref B L0: 79.1% 14.8%  4.6%  1.5%
x264 [info]: ref B L1: 93.9%  6.1%
x264 [info]: kb/s:9760.93



[+] Инфо-файл

Общее
Уникальный идентификатор                 : 222416849402618571743287435034102748228 (0xA753ED527F9C89A3BA3B03AF9BCE5444)
Полное имя                               : D:ЗагрузкиTobol.2019.x264.BDRip.(1080p).OlLanDGroup.mkv
Формат                                   : Matroska
Версия формата                           : Version 4 / Version 2
Размер файла                             : 9,01 Гбайт
Продолжительность                        : 1 ч. 48 м.
Общий поток                              : 11,9 Мбит/сек
Название фильма                          : Тобол.2019.Rip by: ollan
Дата кодирования                         : UTC 2019-06-30 08:04:55
Программа кодирования                    : mkvmerge v6.5.0 ('Isn't she lovely') built on Oct 20 2013 12:50:05
Библиотека кодирования                   : libebml v1.3.0 + libmatroska v1.4.1
Обложка                                  : Yes
Attachments                              : Cover - Tobol.png

Видео
Идентификатор                            : 1
Формат                                   : AVC
Формат/Информация                        : Advanced Video Codec
Профиль формата                          : High@L4.1
Настройки формата                        : CABAC / 5 Ref Frames
Параметр CABAC формата                   : Да
Параметр ReFrames формата                : 5 кадров
Идентификатор кодека                     : V_MPEG4/ISO/AVC
Продолжительность                        : 1 ч. 48 м.
Битрейт                                  : 9773 Кбит/сек
Ширина                                   : 1920 пикселей
Высота                                   : 804 пикселя
Соотношение сторон                       : 2,40:1
Режим частоты кадров                     : Постоянный
Частота кадров                           : 23,976 (24000/1001) кадра/сек
Цветовое пространство                    : YUV
Субдискретизация насыщенности            : 4:2:0
Битовая глубина                          : 8 бит
Тип развёртки                            : Прогрессивная
Бит/(Пиксели*Кадры)                      : 0.264
Размер потока                            : 7,20 Гбайт (80%)
Библиотека кодирования                   : x264 core 146 r2538 121396c
Настройки программы                      : cabac=1 / ref=5 / deblock=1:-3:-3 / analyse=0x3:0x133 / me=umh / subme=11 / psy=1 / psy_rd=0.95:0.05 / mixed_ref=1 / me_range=64 / chroma_me=1 / trellis=2 / 8x8dct=1 / cqm=0 / deadzone=21,11 / fast_pskip=0 / chroma_qp_offset=-3 / threads=12 / lookahead_threads=3 / sliced_threads=0 / nr=0 / decimate=0 / interlaced=0 / bluray_compat=0 / constrained_intra=0 / bframes=10 / b_pyramid=2 / b_adapt=2 / b_bias=0 / direct=3 / weightb=1 / open_gop=0 / weightp=2 / keyint=240 / keyint_min=23 / scenecut=40 / intra_refresh=0 / rc_lookahead=40 / rc=2pass / mbtree=0 / bitrate=9773 / ratetol=1.0 / qcomp=0.60 / qpmin=0 / qpmax=69 / qpstep=4 / cplxblur=20.0 / qblur=0.5 / vbv_maxrate=50000 / vbv_bufsize=62500 / nal_hrd=none / filler=0 / ip_ratio=1.40 / pb_ratio=1.30 / aq=1:1.00
Язык                                     : Russian
Default                                  : Да
Forced                                   : Нет

Аудио #1
Идентификатор                            : 2
Формат                                   : AC-3
Формат/Информация                        : Audio Coding 3
Идентификатор кодека                     : A_AC3
Продолжительность                        : 1 ч. 48 м.
Вид битрейта                             : Постоянный
Битрейт                                  : 640 Кбит/сек
Каналы                                   : 6 каналов
Расположение каналов                     : Front: L C R, Side: L R, LFE
Частота                                  : 48,0 КГц
Частота кадров                           : 31,250 кадров/сек (1536 SPF)
Битовая глубина                          : 16 бит
Метод сжатия                             : С потерями
Размер потока                            : 495 Мбайт (5%)
Заголовок                                : Лицензия
Язык                                     : Russian
Service kind                             : Complete Main
Default                                  : Да
Forced                                   : Нет

Аудио #2
Идентификатор                            : 3
Формат                                   : DTS
Формат/Информация                        : Digital Theater Systems
Идентификатор кодека                     : A_DTS
Продолжительность                        : 1 ч. 48 м.
Вид битрейта                             : Постоянный
Битрейт                                  : 1509 Кбит/сек
Каналы                                   : 6 каналов
Расположение каналов                     : Front: L C R, Side: L R, LFE
Частота                                  : 48,0 КГц
Частота кадров                           : 93,750 кадра/сек (512 SPF)
Битовая глубина                          : 24 бит
Метод сжатия                             : С потерями
Размер потока                            : 1,14 Гбайт (13%)
Заголовок                                : Лицензия
Язык                                     : Russian
Default                                  : Нет
Forced                                   : Нет

Меню
00:00:00.000                             : ru:Chapter 01
00:09:42.624                             : ru:Chapter 02
00:18:23.811                             : ru:Chapter 03
00:28:32.252                             : ru:Chapter 04
00:37:53.480                             : ru:Chapter 05
00:47:07.491                             : ru:Chapter 06
00:55:04.301                             : ru:Chapter 07
01:05:02.315                             : ru:Chapter 08
01:14:37.973                             : ru:Chapter 09
01:21:39.853                             : ru:Chapter 10
01:33:04.662                             : ru:Chapter 11
01:42:13.419                             : ru:Chapter 12




Скриншоты:
[+] Всего файлов в раздаче - 1:
Tobol.2019.x264.BDRip.(1080p).OlLanDGroup.mkv9.01 GB

Похожие раздачи по запросу - тобол:
2019-06-30 U Тобол (2019) BDRip от MegaPeer | Лицензия 1.46 GB ↑ 142 ↓ 31
2019-03-24 U Тобол (2019) WEB-DLRip от GeneralFilm | iTunes 1К745.73 MB ↑ 267 ↓ 41
2019-03-23 U Тобол (2019) WEB-DLRip от Scarabey | iTunes 1.45 GB ↑ 289 ↓ 54
2019-03-21 U Тобол (2019) WEB-DLRip от MegaPeer | iTunes 1.46 GB ↑ 424 ↓ 170
2019-03-21 U Тобол (2019) WEB-DLRip | iTunes 1.46 GB ↑ 688 ↓ 237
2019-03-21 U Тобол (2019) WEB-DL 1080p | iTunes 3.71 GB ↑ 1642 ↓ 530

Отзывы
Зарегистрируйтесь чтобы добавить комментарий.
Обратная связь
Copyleft ©