↑↓Torrent.by
Поиск
Логин: Регистрация
Пароль: Восстановить пароль
Загрузка...

BBC: Тайны кратера динозавров / Secrets Of The Dinosaur Crater (2017) DVB | P2

Скачать bbc-tayny-kratera-dinozavrov-secrets-of-the-dinosaur-crater-2017-dvb-p2.torrent
U Магнитная ссылка Размер: 760.67 MB Раздают: 37 Качают: 10 Добавлен: 2019-07-01 07:31:41
BBC: Тайны кратера динозавров / Secrets Of The Dinosaur Crater (2017) DVB | P2

Название: Тайны кратера динозавров
Оригинальное название: Secrets Of The Dinosaur Crater
Год выхода: 2017
Жанр: Документальный, археология, история
Режиссер: Ник Грин, Бен Лори

О фильме:
66 миллионов лет назад астероид размером с Лондон врезался в Землю. Тот день стал смертельным для динозавров. Как одно происшествие смогло уничтожить три четверти всех видов животных? И как остальным удалось выжить?" Документальный фильм расскажет о достижениях самых передовых исследований того катастрофического события.


Страна: Великобритания
Студия: Barcroft Productions for BBC
Продолжительность: 00:49:50
Перевод: Профессиональный (двухголосый закадровый) Видеофильм ТВ

Файл
Кодек: AVC/H.264
Качество: DVB
Видео: 720x576@1047x576 (16:9) AVC (H.264) Main@L3.0, ~ 1834 kbps, 25fps
Звук: Русский 48 kHz, MPEG Layer 2, 2 ch, ~192.00 kbps avg

Семпл

Релиз от: kyba
[+] MediaInfo
Complete name               : F:НаладкиSD-фильмыТайны кратера динозавров.ts
Format                      : MPEG-TS
File size                   : 761 MiB
Duration                    : 49 min 50 s
Overall bit rate mode       : Variable
Overall bit rate            : 2 134 kb/s

Video
ID                          : 401 (0x191)
Menu ID                     : 2608 (0xA30)
Format                      : AVC
Format/Info                 : Advanced Video Codec
Format profile              : Main@L3
Format settings             : CABAC / 4 Ref Frames
Format settings, CABAC      : Yes
Format settings, ReFrames   : 4 frames
Codec ID                    : 27
Duration                    : 49 min 50 s
Bit rate                    : 1 834 kb/s
Width                       : 720 pixels
Height                      : 576 pixels
Display aspect ratio        : 16:9
Frame rate                  : 25.000 FPS
Standard                    : Component
Color space                 : YUV
Chroma subsampling          : 4:2:0
Bit depth                   : 8 bits
Scan type                   : Interlaced
Scan type, store method     : Separated fields
Scan order                  : Top Field First
Bits/(Pixel*Frame)          : 0.177
Stream size                 : 654 MiB (86%)
Color range                 : Limited
Color primaries             : BT.601 PAL
Transfer characteristics    : BT.470 System B, BT.470 System G
Matrix coefficients         : BT.470 System B, BT.470 System G

Audio
ID                          : 402 (0x192)
Menu ID                     : 2608 (0xA30)
Format                      : MPEG Audio
Format version              : Version 1
Format profile              : Layer 2
Codec ID                    : 3
Duration                    : 49 min 50 s
Bit rate mode               : Constant
Bit rate                    : 192 kb/s
Channel(s)                  : 2 channels
Sampling rate               : 48.0 kHz
Frame rate                  : 41.667 FPS (1152 SPF)
Compression mode            : Lossy
Stream size                 : 68.4 MiB (9%)
Language                    : Russian



Скриншоты:
[+] Всего файлов в раздаче - 1:
Тайны кратера динозавров.ts760.67 MB

Показать еще раздачи по запросу тайны:
2019-07-11 U Тайны ХХ века №20 (Май) (2019) PDF 52.96 MB ↑ 73 ↓ 8
2019-06-17 U Тайны духов 11: Заблудшая королева / Spirits of Mystery 11: The Lost Queen (2018) PC 649.38 MB ↑ 71 ↓ 11
2019-05-06 U Роберт Брындза - Смертельные тайны (2019) FB2 3.21 MB ↑ 84 ↓ 3
2019-04-20 U Московские тайны. Графский парк [01-02 из 02] (2018) WEB-DLRip от Files-x 1.11 GB ↑ 84 ↓ 26
2019-04-19 U Московские тайны. Графский парк [01-02 из 02] (2018) SATRip 1.17 GB ↑ 254 ↓ 40
2019-04-19 U Московские тайны. Графский парк [01-02 из 02] (2019) SATRip-AVC 1.08 GB ↑ 74 ↓ 13
2019-04-14 U Московские тайны. Опасный переплет [01-02 из 02] (2018) WEB-DLRip-AVC от Files-x 1.10 GB ↑ 118 ↓ 22

Отзывы
Зарегистрируйтесь чтобы добавить комментарий.
Обратная связь
Copyleft ©