↑↓Torrent.by
Поиск
Логин: Регистрация
Пароль: Восстановить пароль
Загрузка...

Любовь не по правилам (2019) HDTVRip от GeneralFilm

Скачать lyubov-ne-po-pravilam-2019-hdtvrip-ot-generalfilm.torrent
U Магнитная ссылка Размер: 745.20 MB Раздают: 24 Качают: 14 Добавлен: 2019-07-01 07:32:02
Любовь не по правилам (2019) HDTVRip от GeneralFilm

Оригинальное название: Любовь не по правилам
Год выпуска: 2019
Жанр:  Мелодрама
Выпущено: Россия, Кинокомпания «Русское»
Режиссер: Евгений Звездаков
В ролях: Мария Куликова, Фёдор Лавров, Марк Богатырёв, Данил Акутин, Алиса Лозовская

О фильме: Семейная жизнь хирурга Марии Васиной была вполне счастливой. У неё были прекрасные отношения с любящим супругом и дочерью, решившей тоже стать врачом. Каково же было её потрясение, когда она узнала, что муж Евгений уходит к любовнице! Она болезненно переживает предательство человека. Из глубокой депрессии её выводит встреча с молодым парнем Кириллом. Несмотря на разницу в возрасте, между ними вспыхивает страстная любовь. И когда одумавшийся муж решает вернуться домой, Мария должна сделать свой выбор.

Качество: HDTVRip
Видео: XviD build 73, 688x384 (16:9), 25.000 fps, 1036 Kbps (0.157 bit/pixel)
Аудио: 48.0 kHz, MP3, 2 ch, 128 kbps
Продолжительность: 01:28:47
Перевод: Не требуется [Русский]
Cубтитры: нет

Релиз:


[+] MediaInfo
General
Complete name               : D:RazdachiLjubovj.Ne.Po.Pravilam.2019.HDTVRip.GeneralFilm.avi
Format                      : AVI
Format/Info                 : Audio Video Interleave
File size                   : 745 MiB
Duration                    : 1 h 28 min
Overall bit rate            : 1 173 kb/s
Writing application         : VirtualDubMod 1.5.10.3 | www.virtualdub-fr.org || (build 2550/release)
Writing library             : VirtualDubMod build 2550/release

Video
ID                          : 0
Format                      : MPEG-4 Visual
Format profile              : Advanced Simple@L5
Format settings             : BVOP1 / Custom Matrix
Format settings, BVOP       : 1
Format settings, QPel       : No
Format settings, GMC        : No warppoints
Format settings, Matrix     : Custom
Codec ID                    : XVID
Codec ID/Hint               : XviD
Duration                    : 1 h 28 min
Bit rate                    : 1 036 kb/s
Width                       : 688 pixels
Height                      : 384 pixels
Display aspect ratio        : 16:9
Frame rate                  : 25.000 FPS
Color space                 : YUV
Chroma subsampling          : 4:2:0
Bit depth                   : 8 bits
Scan type                   : Progressive
Compression mode            : Lossy
Bits/(Pixel*Frame)          : 0.157
Stream size                 : 658 MiB (88%)
Writing library             : XviD 73

Audio
ID                          : 1
Format                      : MPEG Audio
Format version              : Version 1
Format profile              : Layer 3
Codec ID                    : 55
Codec ID/Hint               : MP3
Duration                    : 1 h 28 min
Bit rate mode               : Constant
Bit rate                    : 128 kb/s
Channel(s)                  : 2 channels
Sampling rate               : 48.0 kHz
Frame rate                  : 41.667 FPS (1152 SPF)
Compression mode            : Lossy
Stream size                 : 81.3 MiB (11%)
Alignment                   : Aligned on interleaves
Interleave, duration        : 40  ms (1.00 video frame)
Interleave, preload duratio : 504  ms
Writing library             : LAME3.99r
Encoding settings           : -m s -V 4 -q 2 -lowpass 17 -b 128



Скриншоты:
[+] Всего файлов в раздаче - 1:
Ljubovj.Ne.Po.Pravilam.2019.HDTVRip.GeneralFilm.avi745.20 MB

Показать еще раздачи по запросу любовь:
Сегодня U Любовь не по правилам (2019) WEBRip-AVC от Files-x 1.37 GB ↑ 30 ↓ 10
2019-07-01 U Любовь не по правилам (2019) HDTV 1080p от Generalfilm 4.49 GB ↑ 52 ↓ 17
2019-07-01 U Любовь не по правилам (2019) HDTVRip 720p от ExKinoRay 2.60 GB ↑ 35 ↓ 9
2019-06-30 U Любовь не по правилам (2019) WEBRip от Files-x 1.38 GB ↑ 158 ↓ 57
2019-06-20 U Секс, ложь, безумие / Любовь его мечты / Dream Lover (1993) LDRip | Unrated | P2, A 1.61 GB ↑ 35 ↓ 19
2019-06-07 U Любовь, смерть и роботы / Love, Death & Robots [S01] (2019) WEB-DL HEVC 1080p | HDR | BTI Studios, Кубик в Кубе 8.98 GB ↑ 38 ↓ 22
2019-05-26 U Мектуб, моя любовь / Mektoub, My Love: Canto Uno (2017) HDTVRip от Deadmauvlad | P 1.46 GB ↑ 64 ↓ 22

Отзывы
Зарегистрируйтесь чтобы добавить комментарий.
Обратная связь
Copyleft ©