↑↓Torrent.by
Поиск
Логин: Регистрация
Пароль: Восстановить пароль
Загрузка...

Нэнси Дрю и потайная лестница / Nancy Drew and the Hidden Staircase (2019) BDRip 1080p от ExKinoRay | HDRezka Studio

Скачать nensi-dryu-i-potaynaya-lestnica-nancy-drew-and-the-hidden-staircase-2019-bdrip-1080p-ot-exkinoray-hdrezka-studio.torrent
U Магнитная ссылка Размер: 7.24 GB Раздают: 45 Качают: 8 Добавлен: 2019-07-01 07:32:06
Нэнси Дрю и потайная лестница / Nancy Drew and the Hidden Staircase (2019) BDRip 1080p от ExKinoRay | HDRezka Studio

Название: Нэнси Дрю и потайная лестница
Оригинальное название: Nancy Drew and the Hidden Staircase
Год выпуска: 2019
Жанр:  Драма, криминал, детектив, семейный
Режиссер: Кэтт Ши
В ролях: София Лиллис, Сэм Трэммелл, Андреа Андерс, Лаура Уиггинс, Линда Лавин, Джесси Бойд, Джон Бридделл, Дженнифер Райкер, Маккензи Грэхэм, Ивэн Кастелло

Описание:   В центре сюжета — парочка пожилых сестер Тернбулл, живущих в старом особняке Викторианской эпохи. Странные события, происходящие в стенах дома, приводят к тому, что сестер обвиняют в убийстве. Нэнси Дрю берется за дело и спешит разгадать тайну, чтобы спасти героинь от тюрьмы.

Выпущено: США, A Very Good Production Inc., Red 56
Продолжительность: 01:29:14
Перевод: Профессиональный (многоголосый, закадровый) | HDRezka Studio
Субтитры: Английские

БЕЗ КАКОЙ-ЛИБО РЕКЛАМЫ!

Формат: MKV
Качество: BDRip 1080p
Видео: MPEG-4 AVC, 1920x1080 (16:9), 23.976 fps, 9920 Kbps, 0.200 bit/pixel
Аудио 1: 48 kHz, AC3, 2.0, 192 Kbps | MVO | RUS |
Аудио 2: 48 kHz, DTS, 5.1, 1509 Kbps | Оригинал |  ENG |

Релиз:

Автор релиза:


[+] ОтчетМедиаИнфо
General
Unique ID : 201424731874552930545323531454164710327 (0x9788FE05209A0D2B80CD5FC6CC4B33B7)
Complete name : F:Nancy.Drew.and.the.Hidden.Staircase.2019.MVO.1080p.BDRip.ExKinoRay.mkv
Format : Matroska
Format version : Version 2
File size : 7.24 GiB
Duration : 1 h 29 min
Overall bit rate : 11.6 Mb/s
Movie name : Nancy Drew and the Hidden Staircase 2019 from ExKinoRay
Encoded date : UTC 2019-06-30 12:27:54
Writing application : mkvmerge v5.6.0 ('Kenya Kane') built on May 27 2012 16:44:04
Writing library : libebml v1.2.3 + libmatroska v1.3.0

Video
ID : 1
Format : AVC
Format/Info : Advanced Video Codec
Format profile : High@L4.1
Format settings, CABAC : Yes
Format settings, ReFrames : 4 frames
Codec ID : V_MPEG4/ISO/AVC
Duration : 1 h 29 min
Bit rate : 9 920 kb/s
Width : 1 920 pixels
Height : 1 080 pixels
Display aspect ratio : 16:9
Frame rate mode : Constant
Frame rate : 23.976 (24000/1001) FPS
Color space : YUV
Chroma subsampling : 4:2:0
Bit depth : 8 bits
Scan type : Progressive
Bits/(Pixel*Frame) : 0.200
Stream size : 6.04 GiB (83%)
Title : Enigma
Writing library : x264 core 152 r2851 ba24899
Encoding settings : cabac=1 / ref=4 / deblock=1:-2:-2 / analyse=0x3:0x113 / me=umh / subme=10 / psy=1 / psy_rd=1.00:0.04 / mixed_ref=1 / me_range=32 / chroma_me=1 / trellis=2 / 8x8dct=1 / cqm=0 / deadzone=21,11 / fast_pskip=0 / chroma_qp_offset=-3 / threads=12 / lookahead_threads=3 / sliced_threads=0 / nr=0 / decimate=0 / interlaced=0 / bluray_compat=0 / constrained_intra=0 / bframes=10 / b_pyramid=2 / b_adapt=2 / b_bias=0 / direct=3 / weightb=1 / open_gop=0 / weightp=2 / keyint=240 / keyint_min=23 / scenecut=40 / intra_refresh=0 / rc=2pass / mbtree=0 / bitrate=9920 / ratetol=1.0 / qcomp=0.60 / qpmin=0 / qpmax=51 / qpstep=4 / cplxblur=20.0 / qblur=0.5 / ip_ratio=1.30 / pb_ratio=1.20 / aq=3:0.80
Language : English
Default : Yes
Forced : No
Color range : Limited
Color primaries : BT.709
Transfer characteristics : BT.709
Matrix coefficients : BT.709

Audio #1
ID : 2
Format : AC-3
Format/Info : Audio Coding 3
Mode extension : CM (complete main)
Format settings, Endianness : Big
Codec ID : A_AC3
Duration : 1 h 29 min
Bit rate mode : Constant
Bit rate : 192 kb/s
Channel(s) : 2 channels
Channel positions : Front: L R
Sampling rate : 48.0 kHz
Frame rate : 31.250 FPS (1536 spf)
Compression mode : Lossy
Stream size : 123 MiB (2%)
Title : MVO (HDRezka Studio)
Language : Russian
Default : Yes
Forced : No

Audio #2
ID : 3
Format : DTS
Format/Info : Digital Theater Systems
Mode : 16
Format settings, Endianness : Big
Codec ID : A_DTS
Duration : 1 h 29 min
Bit rate mode : Constant
Bit rate : 1 509 kb/s
Channel(s) : 6 channels
Channel positions : Front: L C R, Side: L R, LFE
Sampling rate : 48.0 kHz
Frame rate : 93.750 FPS (512 spf)
Bit depth : 24 bits
Compression mode : Lossy
Stream size : 963 MiB (13%)
Language : English
Default : No
Forced : No

Text
ID : 4
Format : UTF-8
Codec ID : S_TEXT/UTF8
Codec ID/Info : UTF-8 Plain Text
Language : English
Default : No
Forced : No

Menu
00:00:00.000 : :Chapter 01
00:09:28.108 : :Chapter 02
00:19:10.983 : :Chapter 03
00:26:41.725 : :Chapter 04
00:34:24.853 : :Chapter 05
00:42:01.018 : :Chapter 06
00:51:06.938 : :Chapter 07
00:59:47.750 : :Chapter 08
01:09:19.780 : :Chapter 09
01:19:26.261 : :Chapter 10
01:25:38.550 : :Chapter 11
01:29:14.557 : :Chapter 12




Скриншоты:
[+] Всего файлов в раздаче - 1:
Nancy.Drew.and.the.Hidden.Staircase.2019.MVO.1080p.BDRip.ExKinoRay.mkv7.24 GB

Похожие раздачи по запросу - нэнси:
2019-06-29 U Нэнси Дрю и потайная лестница / Nancy Drew and the Hidden Staircase (2019) BDRip от MegaPeer | HDRezka Studio 1.46 GB ↑ 252 ↓ 76
2019-04-11 U Нэнси Дрю и потайная лестница / Nancy Drew and the Hidden Staircase (2019) WEB-DLRip от Portablius | HDRezka Studio 744.88 MB ↑ 75 ↓ 7
2019-04-10 U Нэнси Дрю и потайная лестница / Nancy Drew and the Hidden Staircase (2019) WEB-DL 1080p от ExKinoRay | HDRezka Studio 3.56 GB ↑ 190 ↓ 50
2017-12-10 U Отмороженная Нэнси - Снять Красные Трусики с Хельги (2017) MP3 75.94 MB ↑ 171 ↓ 19
2013-11-15 U Нэнси Дрю. Проклятие старого замка / Nancy Drew: The Captive Curse (2011) PC | Repack 1.86 GB ↑ 521 ↓ 14
2013-10-27 U Нэнси Дрю.Усыпальница пропавшей королевы / Nancy Drew.Tomb Of The Lost Queen (2013) PC | Repack от Fenixx 4К1.97 GB ↑ 302 ↓ 3

Отзывы
Зарегистрируйтесь чтобы добавить комментарий.
Обратная связь
Copyleft ©