↑↓Torrent.by
Поиск
Логин: Регистрация
Пароль: Восстановить пароль
Загрузка...

Миллиард (2019) WEB-DL 1080p | iTunes

Скачать milliard-2019-web-dl-1080p-itunes.torrent
U Магнитная ссылка Размер: 3.34 GB Раздают: 1209 Качают: 260 Добавлен: 2019-07-01 07:32:10
Миллиард (2019) WEB-DL 1080p | iTunes

Название: Миллиард
Год выхода: 2019
Жанр: Комедия, боевик
Страна: Россия
Перевод: Не требуется
Продолжительность: 01:36:46
Режиссер: Роман Прыгунов
В ролях: Владимир Машков, Александра Бортич, Гела Месхи, Павел Чинарёв, Марина Петренко, Мария Миронова, Даниил Спиваковский, Григорий Калинин, Федор Бавтриков, Дмитрий Астрахан и др.

О фильме: Влиятельный банкир делает всё возможное, чтобы не делиться имуществом со своими незаконнорожденными сыновьями. Но когда его лишают всех денег, выясняется, что помочь Матвею могут только они… Чтобы вернуть себе состояние, миллиардер будет вынужден пойти на ограбление собственного банка в Монте-Карло. А для этого ему придётся выполнить ещё более сложную задачу: вернуть доверие выросших без отца детей…

Файл
Качество: WEB-DL 1080p
Видео: MPEG-4 AVC, 1920x804, 4549 kbps, 25,000 fps
Звук: русский, AC3, 5.1 ch, 48 kHz, 384 kbps
Субтитры: нет

Релиз:


[+] MI
Общее
Уникальный идентификатор                 : 187076900791785319884733971082312994320 (0x8CBDB354DF6EF80C938D48CA7C5CCE10)
Полное имя                               : F:TorrentMilliardWEBDL1080p.mkv
Формат                                   : Matroska
Версия формата                           : Version 4 / Version 2
Размер файла                             : 3,34 Гбайт
Продолжительность                        : 1 ч. 36 м.
Общий поток                              : 4935 Кбит/сек
Дата кодирования                         : UTC 2019-06-30 18:34:20
Программа кодирования                    : mkvmerge v9.5.0 ('Quiet Fire') 64bit
Библиотека кодирования                   : libebml v1.3.4 + libmatroska v1.4.5

Видео
Идентификатор                            : 1
Формат                                   : AVC
Формат/Информация                        : Advanced Video Codec
Профиль формата                          : High@L4
Настройки формата                        : CABAC / 5 Ref Frames
Параметр CABAC формата                   : Да
Параметр RefFrames формата               : 5 кадров
Идентификатор кодека                     : V_MPEG4/ISO/AVC
Продолжительность                        : 1 ч. 36 м.
Битрейт                                  : 4549 Кбит/сек
Ширина                                   : 1920 пикселей
Высота                                   : 804 пикселя
Соотношение сторон                       : 2,40:1
Режим частоты кадров                     : Постоянный
Частота кадров                           : 25,000 кадров/сек
Цветовое пространство                    : YUV
Субдискретизация насыщенности            : 4:2:0
Битовая глубина                          : 8 бит
Тип развёртки                            : Прогрессивная
Бит/(Пиксели*Кадры)                      : 0.118
Размер потока                            : 3,07 Гбайт (92%)
Заголовок                                : Sisendrovich(R)
Язык                                     : English
Default                                  : Да
Forced                                   : Нет
Цветовой диапазон                        : Limited
Основные цвета                           : BT.709
Характеристики трансфера                 : BT.709
Коэффициенты матрицы                     : BT.709

Аудио
Идентификатор                            : 2
Формат                                   : AC-3
Формат/Информация                        : Audio Coding 3
Параметр Endianness формата              : Big
Идентификатор кодека                     : A_AC3
Продолжительность                        : 1 ч. 36 м.
Вид битрейта                             : Постоянный
Битрейт                                  : 384 Кбит/сек
Каналы                                   : 6 каналов
Расположение каналов                     : Front: L C R, Side: L R, LFE
Частота                                  : 48,0 КГц
Частота кадров                           : 31,250 кадров/сек (1536 SPF)
Битовая глубина                          : 16 бит
Метод сжатия                             : С потерями
Размер потока                            : 266 Мбайт (8%)
Язык                                     : Russian
Default                                  : Да
Forced                                   : Нет

Меню
00:00:00.000                             : en:Глава 1
00:06:13.080                             : en:Глава 2
00:12:46.280                             : en:Глава 3
00:19:14.520                             : en:Глава 4
00:25:43.480                             : en:Глава 5
00:32:31.920                             : en:Глава 6
00:39:28.440                             : en:Глава 7
00:44:57.120                             : en:Глава 8
00:52:20.360                             : en:Глава 9
00:58:54.640                             : en:Глава 10
01:05:46.840                             : en:Глава 11
01:12:42.520                             : en:Глава 12
01:20:22.040                             : en:Глава 13
01:27:17.080                             : en:Глава 14




Скриншоты:
[+] Всего файлов в раздаче - 1:
MilliardWEBDL1080p.mkv3.34 GB

Показать еще раздачи по запросу миллиард:
2019-07-19 U Василий Маханенко - Галактиона 3. Чек на миллиард (2019) МР3 275.29 MB ↑ 59 ↓ 3
2019-07-03 U Миллиард (2019) WEB-DLRip от Scarabey | iTunes 1.44 GB ↑ 556 ↓ 81
2019-07-01 U Миллиард (2019) WEB-DLRip-AVC | iTunes 743.24 MB ↑ 199 ↓ 48
2019-07-01 U Миллиард (2019) WEB-DLRip-AVC от ExKinoRay | iTunes 1.45 GB ↑ 299 ↓ 54
2019-07-01 U Миллиард (2019) WEB-DLRip от Generalfilm | iTunes 1.46 GB ↑ 184 ↓ 57
2019-07-01 U Миллиард (2019) WEB-DLRip от Generalfilm | iTunes 746.00 MB ↑ 210 ↓ 44
2019-07-01 U Миллиард (2019) WEB-DLRip | iTunes 1.46 GB ↑ 443 ↓ 122

Отзывы
Зарегистрируйтесь чтобы добавить комментарий.
Обратная связь
Copyleft ©