↑↓Torrent.by
Поиск
Логин: Регистрация
Пароль: Восстановить пароль
Загрузка...

Миллиард (2019) WEB-DLRip | iTunes

Скачать milliard-2019-web-dlrip-itunes.torrent
U Магнитная ссылка Размер: 1.46 GB Раздают: 349 Качают: 113 Добавлен: 2019-07-01 07:32:14
Миллиард (2019) WEB-DLRip | iTunes

Название: Миллиард
Год выхода: 2019
Жанр: Комедия, боевик
Страна: Россия
Перевод: Не требуется
Продолжительность: 01:36:46
Режиссер: Роман Прыгунов
В ролях: Владимир Машков, Александра Бортич, Гела Месхи, Павел Чинарёв, Марина Петренко, Мария Миронова, Даниил Спиваковский, Григорий Калинин, Федор Бавтриков, Дмитрий Астрахан и др.

О фильме: Влиятельный банкир делает всё возможное, чтобы не делиться имуществом со своими незаконнорожденными сыновьями. Но когда его лишают всех денег, выясняется, что помочь Матвею могут только они… Чтобы вернуть себе состояние, миллиардер будет вынужден пойти на ограбление собственного банка в Монте-Карло. А для этого ему придётся выполнить ещё более сложную задачу: вернуть доверие выросших без отца детей…

Файл
Формат: AVI
Качество: WEB-DLRip
Видео: Xvid 73, 720x304, ~1757 kbps, 25,000 fps
Звук: русский, AC3, 5.1 ch, 48 kHz, 384 kbps
Субтитры: нет

Рип и релиз от:


[+] MI
Общее
Полное имя                               : F:TorrentMilliardWEBDLRip.avi
Формат                                   : AVI
Формат/Информация                        : Audio Video Interleave
Профиль формата                          : OpenDML
Размер файла                             : 1,46 Гбайт
Продолжительность                        : 1 ч. 36 м.
Общий поток                              : 2153 Кбит/сек
Программа кодирования                    : XviD4PSP 6.0 / 54.27.101

Видео
Идентификатор                            : 0
Формат                                   : MPEG-4 Visual
Профиль формата                          : Advanced Simple@L5
Настройки формата                        : BVOP1 / Custom Matrix
Параметр BVOP формата                    : 1
Параметр QPel формата                    : Нет
Параметр GMC формата                     : Без точки перехода
Параметр матрицы формата                 : Выборочная
Идентификатор кодека                     : XVID
Идентификатор кодека/Подсказка           : XviD
Продолжительность                        : 1 ч. 36 м.
Битрейт                                  : 1757 Кбит/сек
Ширина                                   : 720 пикселей
Высота                                   : 304 пикселя
Соотношение сторон                       : 2,35:1
Частота кадров                           : 25,000 кадров/сек
Цветовое пространство                    : YUV
Субдискретизация насыщенности            : 4:2:0
Битовая глубина                          : 8 бит
Тип развёртки                            : Прогрессивная
Метод сжатия                             : С потерями
Бит/(Пиксели*Кадры)                      : 0.321
Размер потока                            : 1,19 Гбайт (82%)
Библиотека кодирования                   : XviD 73

Аудио
Идентификатор                            : 1
Формат                                   : AC-3
Формат/Информация                        : Audio Coding 3
Параметр Endianness формата              : Big
Идентификатор кодека                     : 2000
Продолжительность                        : 1 ч. 36 м.
Вид битрейта                             : Постоянный
Битрейт                                  : 384 Кбит/сек
Каналы                                   : 6 каналов
Расположение каналов                     : Front: L C R, Side: L R, LFE
Частота                                  : 48,0 КГц
Частота кадров                           : 31,250 кадров/сек (1536 SPF)
Битовая глубина                          : 16 бит
Метод сжатия                             : С потерями
Размер потока                            : 266 Мбайт (18%)
Выравнивание                             : Соединение по промежуткам
Продолжительность промежутка             : 32  мс. (0,80 видеокадр)




Скриншоты:
[+] Всего файлов в раздаче - 1:
MilliardWEBDLRip.avi1.46 GB

Показать еще раздачи по запросу миллиард:
2019-07-19 U Василий Маханенко - Галактиона 3. Чек на миллиард (2019) МР3 275.29 MB ↑ 51 ↓ 3
2019-07-03 U Миллиард (2019) WEB-DLRip от Scarabey | iTunes 1.44 GB ↑ 193 ↓ 72
2019-07-01 U Миллиард (2019) WEB-DLRip-AVC | iTunes 743.24 MB ↑ 108 ↓ 45
2019-07-01 U Миллиард (2019) WEB-DLRip от Generalfilm | КПК | iTunes 367.87 MB ↑ 85 ↓ 22
2019-07-01 U Миллиард (2019) WEB-DLRip-AVC от ExKinoRay | iTunes 1.45 GB ↑ 82 ↓ 53
2019-07-01 U Миллиард (2019) WEB-DLRip от Generalfilm | iTunes 1.46 GB ↑ 102 ↓ 54
2019-07-01 U Миллиард (2019) WEB-DLRip от Generalfilm | iTunes 746.00 MB ↑ 157 ↓ 44

Отзывы
Зарегистрируйтесь чтобы добавить комментарий.
Обратная связь
Copyleft ©