↑↓Torrent.by
Поиск
Логин: Регистрация
Пароль: Восстановить пароль
Загрузка...

Миллиард (2019) WEB-DLRip от Generalfilm | iTunes

Скачать milliard-2019-web-dlrip-ot-generalfilm-itunes.torrent
U Магнитная ссылка Размер: 746.00 MB Раздают: 208 Качают: 44 Добавлен: 2019-07-01 07:32:21
Миллиард (2019) WEB-DLRip от Generalfilm | iTunes

Оригинальное название: Миллиард
Год выпуска: 2019
Жанр:  Комедия, боевик
Выпущено: Россия, RSS Production
Режиссер: Роман Прыгунов
В ролях: Владимир Машков, Александра Бортич, Гела Месхи, Павел Чинарёв, Марина Петренко, Мария Миронова, Даниил Спиваковский, Григорий Калинин, Федор Бавтриков, Дмитрий Астрахан и др.

О фильме: Влиятельный банкир делает всё возможное, чтобы не делиться имуществом со своими незаконнорожденными сыновьями. Но когда его лишают всех денег, выясняется, что помочь Матвею могут только они… Чтобы вернуть себе состояние, миллиардер будет вынужден пойти на ограбление собственного банка в Монте-Карло. А для этого ему придётся выполнить ещё более сложную задачу: вернуть доверие выросших без отца детей…

Качество: WEB-DLRip
Видео: XviD build 73, 720x304 (2.37:1), 25.000 fps, 940 Kbps (0.172 bit/pixel)
Аудио: 48.0 kHz, MP3, 2 ch, 128 kbps
Продолжительность: 01:36:46
Перевод: Не требуется [Русский]
Cубтитры: нет

Релиз:


[+] MediaInfo
General
Complete name               : D:RazdachiMilliard.2019.WEB-DLRip.745Mb.GeneralFilm.avi
Format                      : AVI
Format/Info                 : Audio Video Interleave
File size                   : 746 MiB
Duration                    : 1 h 36 min
Overall bit rate            : 1 078 kb/s
Writing application         : VirtualDubMod 1.5.10.3 | www.virtualdub-fr.org || (build 2550/release)
Writing library             : VirtualDubMod build 2550/release

Video
ID                          : 0
Format                      : MPEG-4 Visual
Format profile              : Advanced Simple@L5
Format settings             : BVOP1 / Custom Matrix
Format settings, BVOP       : 1
Format settings, QPel       : No
Format settings, GMC        : No warppoints
Format settings, Matrix     : Custom
Codec ID                    : XVID
Codec ID/Hint               : XviD
Duration                    : 1 h 36 min
Bit rate                    : 940 kb/s
Width                       : 720 pixels
Height                      : 304 pixels
Display aspect ratio        : 2.35:1
Frame rate                  : 25.000 FPS
Color space                 : YUV
Chroma subsampling          : 4:2:0
Bit depth                   : 8 bits
Scan type                   : Progressive
Compression mode            : Lossy
Bits/(Pixel*Frame)          : 0.172
Stream size                 : 651 MiB (87%)
Writing library             : XviD 73

Audio
ID                          : 1
Format                      : MPEG Audio
Format version              : Version 1
Format profile              : Layer 3
Codec ID                    : 55
Codec ID/Hint               : MP3
Duration                    : 1 h 36 min
Bit rate mode               : Constant
Bit rate                    : 128 kb/s
Channel(s)                  : 2 channels
Sampling rate               : 48.0 kHz
Frame rate                  : 41.667 FPS (1152 SPF)
Compression mode            : Lossy
Stream size                 : 88.6 MiB (12%)
Alignment                   : Aligned on interleaves
Interleave, duration        : 40  ms (1.00 video frame)
Interleave, preload duratio : 504  ms
Writing library             : LAME3.99r
Encoding settings           : -m s -V 4 -q 2 -lowpass 17 -b 128



Скриншоты:
[+] Всего файлов в раздаче - 1:
Milliard.2019.WEB-DLRip.745Mb.GeneralFilm.avi746.00 MB

Показать еще раздачи по запросу миллиард:
2019-07-19 U Василий Маханенко - Галактиона 3. Чек на миллиард (2019) МР3 275.29 MB ↑ 59 ↓ 3
2019-07-03 U Миллиард (2019) WEB-DLRip от Scarabey | iTunes 1.44 GB ↑ 459 ↓ 78
2019-07-01 U Миллиард (2019) WEB-DLRip-AVC | iTunes 743.24 MB ↑ 189 ↓ 48
2019-07-01 U Миллиард (2019) WEB-DLRip-AVC от ExKinoRay | iTunes 1.45 GB ↑ 192 ↓ 54
2019-07-01 U Миллиард (2019) WEB-DLRip от Generalfilm | iTunes 1.46 GB ↑ 154 ↓ 57
2019-07-01 U Миллиард (2019) WEB-DLRip | iTunes 1.46 GB ↑ 437 ↓ 121
2019-07-01 U Миллиард (2019) WEB-DL 1080p | iTunes 3.34 GB ↑ 1025 ↓ 259

Отзывы
Зарегистрируйтесь чтобы добавить комментарий.
Обратная связь
Copyleft ©