↑↓Torrent.by
Поиск
Логин: Регистрация
Пароль: Восстановить пароль
Загрузка...

Миллиард (2019) WEB-DLRip от Generalfilm | iTunes

Скачать milliard-2019-web-dlrip-ot-generalfilm-itunes.torrent
U Магнитная ссылка Размер: 1.46 GB Раздают: 98 Качают: 55 Добавлен: 2019-07-01 07:32:37
Миллиард (2019) WEB-DLRip от Generalfilm | iTunes

Оригинальное название: Миллиард
Год выпуска: 2019
Жанр:  Комедия, боевик
Выпущено: Россия, RSS Production
Режиссер: Роман Прыгунов
В ролях: Владимир Машков, Александра Бортич, Гела Месхи, Павел Чинарёв, Марина Петренко, Мария Миронова, Даниил Спиваковский, Григорий Калинин, Федор Бавтриков, Дмитрий Астрахан и др.

О фильме: Влиятельный банкир делает всё возможное, чтобы не делиться имуществом со своими незаконнорожденными сыновьями. Но когда его лишают всех денег, выясняется, что помочь Матвею могут только они… Чтобы вернуть себе состояние, миллиардер будет вынужден пойти на ограбление собственного банка в Монте-Карло. А для этого ему придётся выполнить ещё более сложную задачу: вернуть доверие выросших без отца детей…

Качество: WEB-DLRip
Видео: XviD build 73, 720x304 (2.37:1), 25.000 fps, 1759 Kbps (0.321 bit/pixel)
Аудио: 48.0 kHz, AC3 Dolby Digital, 5/1 (L C R, Side: L R, LFE) ch, 384 kbps
Продолжительность: 01:36:46
Перевод: Не требуется [Русский]
Cубтитры: нет

Релиз:


[+] MediaInfo
General
Complete name               : D:RazdachiMilliard.2019.WEB-DLRip.GeneralFilm.avi
Format                      : AVI
Format/Info                 : Audio Video Interleave
File size                   : 1.46 GiB
Duration                    : 1 h 36 min
Overall bit rate            : 2 153 kb/s
Writing application         : VirtualDubMod 1.5.10.3 | www.virtualdub-fr.org || (build 2550/release)
Writing library             : VirtualDubMod build 2550/release

Video
ID                          : 0
Format                      : MPEG-4 Visual
Format profile              : Advanced Simple@L5
Format settings             : BVOP1 / Custom Matrix
Format settings, BVOP       : 1
Format settings, QPel       : No
Format settings, GMC        : No warppoints
Format settings, Matrix     : Custom
Codec ID                    : XVID
Codec ID/Hint               : XviD
Duration                    : 1 h 36 min
Bit rate                    : 1 759 kb/s
Width                       : 720 pixels
Height                      : 304 pixels
Display aspect ratio        : 2.35:1
Frame rate                  : 25.000 FPS
Color space                 : YUV
Chroma subsampling          : 4:2:0
Bit depth                   : 8 bits
Scan type                   : Progressive
Compression mode            : Lossy
Bits/(Pixel*Frame)          : 0.321
Stream size                 : 1.19 GiB (82%)
Writing library             : XviD 73

Audio
ID                          : 1
Format                      : AC-3
Format/Info                 : Audio Coding 3
Commercial name             : Dolby Digital
Codec ID                    : 2000
Duration                    : 1 h 36 min
Bit rate mode               : Constant
Bit rate                    : 384 kb/s
Channel(s)                  : 6 channels
Channel layout              : L R C LFE Ls Rs
Sampling rate               : 48.0 kHz
Frame rate                  : 31.250 FPS (1536 SPF)
Bit depth                   : 16 bits
Compression mode            : Lossy
Stream size                 : 266 MiB (18%)
Alignment                   : Split accross interleaves
Interleave, duration        : 40  ms (1.00 video frame)
Interleave, preload duratio : 500  ms
Service kind                : Complete Main



Скриншоты:
[+] Всего файлов в раздаче - 1:
Milliard.2019.WEB-DLRip.GeneralFilm.avi1.46 GB

Показать еще раздачи по запросу миллиард:
2019-07-03 U Миллиард (2019) WEB-DLRip от Scarabey | iTunes 1.44 GB ↑ 173 ↓ 70
2019-07-01 U Миллиард (2019) WEB-DLRip-AVC | iTunes 743.24 MB ↑ 100 ↓ 43
2019-07-01 U Миллиард (2019) WEB-DLRip от Generalfilm | КПК | iTunes 367.87 MB ↑ 81 ↓ 22
2019-07-01 U Миллиард (2019) WEB-DLRip-AVC от ExKinoRay | iTunes 1.45 GB ↑ 71 ↓ 53
2019-07-01 U Миллиард (2019) WEB-DLRip от Generalfilm | iTunes 746.00 MB ↑ 152 ↓ 44
2019-07-01 U Миллиард (2019) WEB-DLRip | iTunes 1.46 GB ↑ 334 ↓ 110
2019-07-01 U Миллиард (2019) WEB-DL 1080p | iTunes 3.34 GB ↑ 537 ↓ 236

Отзывы
Зарегистрируйтесь чтобы добавить комментарий.
Обратная связь
Copyleft ©