↑↓Torrent.by
Поиск
Логин: Регистрация
Пароль: Восстановить пароль
Загрузка...

Миллиард (2019) WEB-DLRip-AVC от ExKinoRay | iTunes

Скачать milliard-2019-web-dlrip-avc-ot-exkinoray-itunes.torrent
U Магнитная ссылка Размер: 1.45 GB Раздают: 71 Качают: 53 Добавлен: 2019-07-01 07:32:44
Миллиард (2019) WEB-DLRip-AVC от ExKinoRay | iTunes

Название: Миллиард
Год выхода: 2019
Жанр: Комедия, боевик
Страна: Россия
Перевод: Не требуется
Продолжительность: 01:36:46
Режиссер: Роман Прыгунов
В ролях: Владимир Машков, Александра Бортич, Гела Месхи, Павел Чинарёв, Марина Петренко, Мария Миронова, Даниил Спиваковский, Григорий Калинин, Федор Бавтриков, Дмитрий Астрахан и др.

Описание: Влиятельный банкир делает всё возможное, чтобы не делиться имуществом со своими незаконнорожденными сыновьями. Но когда его лишают всех денег, выясняется, что помочь Матвею могут только они… Чтобы вернуть себе состояние, миллиардер будет вынужден пойти на ограбление собственного банка в Монте-Карло. А для этого ему придётся выполнить ещё более сложную задачу: вернуть доверие выросших без отца детей…

Формат: MKV
Качество: WEB-DLRip-AVC
Видео: MPEG-4 AVC, 720x302 (2.40:1), 25.000 fps, 1757 Kbps, 0.323 bit/pixel
Аудио: 48 kHz, AC3, 5.1, 384 Kbps | RUS |

Релиз:

Автор релиза:


[+] ОтчетМедиаИнфо
General
Unique ID                                : 194703616070241859810724007803549248816 (0x927A8D6D2AE82F46931E5F408F71ED30)
Complete name                            : D:Milliard.2019.WEBDL.AVC.ExKinoRay.mkv
Format                                   : Matroska
Format version                           : Version 2
File size                                : 1.45 GiB
Duration                                 : 1 h 36 min
Overall bit rate                         : 2 139 kb/s
Movie name                               : Миллиард (2019) from ExKinoRay
Encoded date                             : UTC 2019-07-01 01:46:36
Writing application                      : mkvmerge v5.6.0 ('Kenya Kane') built on May 27 2012 16:44:04
Writing library                          : libebml v1.2.3 + libmatroska v1.3.0

Video
ID                                       : 1
Format                                   : AVC
Format/Info                              : Advanced Video Codec
Format profile                           : High@L4.1
Format settings, CABAC                   : Yes
Format settings, ReFrames                : 11 frames
Codec ID                                 : V_MPEG4/ISO/AVC
Duration                                 : 1 h 36 min
Bit rate                                 : 1 757 kb/s
Width                                    : 720 pixels
Height                                   : 302 pixels
Display aspect ratio                     : 2.40:1
Frame rate mode                          : Constant
Frame rate                               : 25.000 FPS
Color space                              : YUV
Chroma subsampling                       : 4:2:0
Bit depth                                : 8 bits
Scan type                                : Progressive
Bits/(Pixel*Frame)                       : 0.323
Stream size                              : 1.16 GiB (80%)
Title                                    : Enigma
Writing library                          : x264 core 152 r2851 ba24899
Encoding settings                        : cabac=1 / ref=11 / deblock=1:-2:-2 / analyse=0x3:0x113 / me=umh / subme=10 / psy=1 / psy_rd=1.05:0.10 / mixed_ref=1 / me_range=32 / chroma_me=1 / trellis=2 / 8x8dct=1 / cqm=0 / deadzone=21,11 / fast_pskip=0 / chroma_qp_offset=-3 / threads=9 / lookahead_threads=2 / sliced_threads=0 / nr=0 / decimate=0 / interlaced=0 / bluray_compat=0 / constrained_intra=0 / bframes=10 / b_pyramid=2 / b_adapt=2 / b_bias=0 / direct=3 / weightb=1 / open_gop=0 / weightp=2 / keyint=250 / keyint_min=25 / scenecut=40 / intra_refresh=0 / rc=2pass / mbtree=0 / bitrate=1757 / ratetol=1.0 / qcomp=0.60 / qpmin=0 / qpmax=51 / qpstep=4 / cplxblur=20.0 / qblur=0.5 / ip_ratio=1.30 / pb_ratio=1.20 / aq=3:0.80
Default                                  : Yes
Forced                                   : No
Color range                              : Limited
Color primaries                          : BT.709
Transfer characteristics                 : BT.709
Matrix coefficients                      : BT.709

Audio
ID                                       : 2
Format                                   : AC-3
Format/Info                              : Audio Coding 3
Mode extension                           : CM (complete main)
Format settings, Endianness              : Big
Codec ID                                 : A_AC3
Duration                                 : 1 h 36 min
Bit rate mode                            : Constant
Bit rate                                 : 384 kb/s
Channel(s)                               : 6 channels
Channel positions                        : Front: L C R, Side: L R, LFE
Sampling rate                            : 48.0 kHz
Frame rate                               : 31.250 FPS (1536 spf)
Compression mode                         : Lossy
Stream size                              : 266 MiB (18%)
Language                                 : Russian
Default                                  : Yes
Forced                                   : No

Menu
00:00:00.000                             : en:Глава 1
00:06:13.080                             : en:Глава 2
00:12:46.280                             : en:Глава 3
00:19:14.520                             : en:Глава 4
00:25:43.480                             : en:Глава 5
00:32:31.920                             : en:Глава 6
00:39:28.440                             : en:Глава 7
00:44:57.120                             : en:Глава 8
00:52:20.360                             : en:Глава 9
00:58:54.640                             : en:Глава 10
01:05:46.840                             : en:Глава 11
01:12:42.520                             : en:Глава 12
01:20:22.040                             : en:Глава 13
01:27:17.080                             : en:Глава 14




Скриншоты:
[+] Всего файлов в раздаче - 1:
Milliard.2019.WEBDL.AVC.ExKinoRay.mkv1.45 GB

Показать еще раздачи по запросу миллиард:
2019-07-03 U Миллиард (2019) WEB-DLRip от Scarabey | iTunes 1.44 GB ↑ 174 ↓ 70
2019-07-01 U Миллиард (2019) WEB-DLRip-AVC | iTunes 743.24 MB ↑ 100 ↓ 43
2019-07-01 U Миллиард (2019) WEB-DLRip от Generalfilm | КПК | iTunes 367.87 MB ↑ 81 ↓ 22
2019-07-01 U Миллиард (2019) WEB-DLRip от Generalfilm | iTunes 1.46 GB ↑ 98 ↓ 55
2019-07-01 U Миллиард (2019) WEB-DLRip от Generalfilm | iTunes 746.00 MB ↑ 152 ↓ 44
2019-07-01 U Миллиард (2019) WEB-DLRip | iTunes 1.46 GB ↑ 336 ↓ 110
2019-07-01 U Миллиард (2019) WEB-DL 1080p | iTunes 3.34 GB ↑ 537 ↓ 236

Отзывы
Зарегистрируйтесь чтобы добавить комментарий.
Обратная связь
Copyleft ©