↑↓Torrent.by
Поиск
Логин: Регистрация
Пароль: Восстановить пароль
Загрузка...

Тобол (2019) HDRip от GeneralFilm | Лицензия

Скачать tobol-2019-hdrip-ot-generalfilm-licenziya.torrent
U Магнитная ссылка Размер: 746.97 MB Раздают: 39 Качают: 15 Добавлен: 2019-07-01 13:48:12
Тобол (2019) HDRip от GeneralFilm | Лицензия

Год выпуска: 2019
Жанр:  Драма
Выпущено: Yellow, Black & White
Режиссер: Игорь Зайцев
В ролях: Дмитрий Назаров, Александр Лазарев мл., Юлия Макарова, Евгений Дятлов, Дмитрий Дюжев, Павел Табаков, Илья Маланин, Еркебулан Даиров, Андрей Бурковский, Агата Муцениеце

О фильме: Молодой офицер новой гвардии Петра I Иван Демарин по заданию царя отправляется в глубину Сибири — в пограничный Тобольск. Здесь Иван встречает свою первую любовь и вместе со своим полком оказывается втянутым в заговор местных князей, охотящихся за золотом Яркенда. Его крепость окружена полчищами диких джунгар и помощи ждать неоткуда…

Качество: HDRip
Видео: XviD build 73, 720x304 (2.37:1), 23.976 fps, 828 Kbps (0.158 bit/pixel)
Аудио: 48.0 kHz, MP3 2ch, 128 kbps
Продолжительность: 01:48:14
Перевод: Не требуется [Русский]
Cубтитры: нет

Релиз:


[+] MediaInfo
General
Complete name               : D:RazdachiTobol.2018.HDRip.GeneralFilm.avi
Format                      : AVI
Format/Info                 : Audio Video Interleave
File size                   : 747 MiB
Duration                    : 1 h 48 min
Overall bit rate            : 965 kb/s
Writing application         : VirtualDubMod 1.5.10.3 | www.virtualdub-fr.org || (build 2550/release)
Writing library             : VirtualDubMod build 2550/release

Video
ID                          : 0
Format                      : MPEG-4 Visual
Format profile              : Advanced Simple@L5
Format settings             : BVOP1 / Custom Matrix
Format settings, BVOP       : 1
Format settings, QPel       : No
Format settings, GMC        : No warppoints
Format settings, Matrix     : Custom
Codec ID                    : XVID
Codec ID/Hint               : XviD
Duration                    : 1 h 48 min
Bit rate                    : 828 kb/s
Width                       : 720 pixels
Height                      : 304 pixels
Display aspect ratio        : 2.35:1
Frame rate                  : 23.976 (24000/1001) FPS
Color space                 : YUV
Chroma subsampling          : 4:2:0
Bit depth                   : 8 bits
Scan type                   : Progressive
Compression mode            : Lossy
Bits/(Pixel*Frame)          : 0.158
Stream size                 : 641 MiB (86%)
Writing library             : XviD 73

Audio
ID                          : 1
Format                      : MPEG Audio
Format version              : Version 1
Format profile              : Layer 3
Codec ID                    : 55
Codec ID/Hint               : MP3
Duration                    : 1 h 48 min
Bit rate mode               : Constant
Bit rate                    : 128 kb/s
Channel(s)                  : 2 channels
Sampling rate               : 48.0 kHz
Frame rate                  : 41.667 FPS (1152 SPF)
Compression mode            : Lossy
Stream size                 : 99.1 MiB (13%)
Alignment                   : Aligned on interleaves
Interleave, duration        : 42  ms (1.00 video frame)
Interleave, preload duratio : 504  ms
Writing library             : LAME3.99r
Encoding settings           : -m s -V 4 -q 2 -lowpass 17 -b 128



Скриншоты:
[+] Всего файлов в раздаче - 1:
Tobol.2018.HDRip.GeneralFilm.avi746.97 MB

Показать еще раздачи по запросу тобол:
2019-06-30 U Тобол (2019) BDRip 1080p от OlLanDGroup | Лицензия 9.01 GB ↑ 170 ↓ 115
2019-06-30 U Тобол (2019) BDRip от MegaPeer | Лицензия 1.46 GB ↑ 136 ↓ 31
2019-03-24 U Тобол (2019) WEB-DLRip от GeneralFilm | iTunes 1К745.73 MB ↑ 267 ↓ 41
2019-03-23 U Тобол (2019) WEB-DLRip от Scarabey | iTunes 1.45 GB ↑ 280 ↓ 53
2019-03-22 U Тобол (2019) WEB-DLRip от Generalfilm | КПК | iTunes 407.56 MB ↑ 102 ↓ 13
2019-03-22 U Тобол (2019) WEB-DLRip-AVC | iTunes 1.20 GB ↑ 135 ↓ 38
2019-03-22 U Тобол (2019) WEB-DLRip-AVC от OlLanDGroup | iTunes 1.65 GB ↑ 335 ↓ 67

Отзывы
Зарегистрируйтесь чтобы добавить комментарий.
Обратная связь
Copyleft ©