↑↓Torrent.by
Поиск
Логин: Регистрация
Пароль: Восстановить пароль
Загрузка...

Любовь не по правилам (2019) HDTV 1080p от Generalfilm

Скачать lyubov-ne-po-pravilam-2019-hdtv-1080p-ot-generalfilm.torrent
U Магнитная ссылка Размер: 4.49 GB Раздают: 52 Качают: 17 Добавлен: 2019-07-01 13:49:18
Любовь не по правилам (2019) HDTV 1080p от Generalfilm

Любовь не по правилам


Год выхода: 2019
Страна: Россия
Жанр: Мелодрама
Студия: Кинокомпания «Русское»
Продолжительность: 01:28:47
Перевод: Не требуется
Субтитры: Отсутствуют

Режиссер: Евгений Звездаков

В ролях: Мария Куликова, Фёдор Лавров, Марк Богатырёв, Данил Акутин, Алиса Лозовская

О фильме: Семейная жизнь хирурга Марии Васиной была вполне счастливой. У неё были прекрасные отношения с любящим супругом и дочерью, решившей тоже стать врачом. Каково же было её потрясение, когда она узнала, что муж Евгений уходит к любовнице! Она болезненно переживает предательство человека. Из глубокой депрессии её выводит встреча с молодым парнем Кириллом. Несмотря на разницу в возрасте, между ними вспыхивает страстная любовь. И когда одумавшийся муж решает вернуться домой, Мария должна сделать свой выбор.

Качество: HDTV 1080p Запись с
Формат: MKV
Видео кодек: AVC
Аудио кодек: AC3
Видео: AVC, 1920x1080 (16:9), 25.000 fps, 7 051 Kbps (0.136 bit/pixel)
Аудио: AC3 / 2.0 / 48.0 kHz / 192 kbps /
Релиз:
[+] Отчет МедиаИнфо

General
Unique ID                   : 180129994044658033285051244926624042686 (0x8783C6628D69758690E01F967EEB8EBE)
Complete name               : E:Запись с твLyubov ne po pravilam.2019.HDTV 1080p.by.White Smoke.R.G.Generalfilm.mkv
Format                      : Matroska
Format version              : Version 4 / Version 2
File size                   : 4.49 GiB
Duration                    : 1 h 28 min
Overall bit rate mode       : Constant
Overall bit rate            : 7 232 kb/s
Movie name                  : Lyubov ne po pravilam.2019.HDTV 1080p.by.White Smoke.R.G.Generalfilm.mkv
Encoded date                : UTC 2019-06-30 11:41:58
Writing application         : mkvmerge v6.8.0 ('Theme for Great Cities') 64bit built on Mar  2 2014 21:34:26
Writing library             : libebml v1.3.0 + libmatroska v1.4.1
Cover                       : Yes
Attachments                 : cover.jpg

Video
ID                          : 1
Format                      : AVC
Format/Info                 : Advanced Video Codec
Format profile              : High@L4.1
Format settings             : CABAC / 3 Ref Frames
Format settings, CABAC      : Yes
Format settings, ReFrames   : 3 frames
Format settings, GOP        : M=3, N=33
Codec ID                    : V_MPEG4/ISO/AVC
Duration                    : 1 h 28 min
Bit rate mode               : Constant
Bit rate                    : 7 051 kb/s
Width                       : 1 920 pixels
Height                      : 1 080 pixels
Display aspect ratio        : 16:9
Frame rate mode             : Constant
Frame rate                  : 25.000 FPS
Standard                    : PAL
Color space                 : YUV
Chroma subsampling          : 4:2:0
Bit depth                   : 8 bits
Scan type                   : Progressive
Bits/(Pixel*Frame)          : 0.136
Stream size                 : 4.28 GiB (95%)
Default                     : Yes
Forced                      : No
Color range                 : Limited
Color primaries             : BT.709
Transfer characteristics    : BT.709
Matrix coefficients         : BT.709

Audio
ID                          : 2
Format                      : AC-3
Format/Info                 : Audio Coding 3
Commercial name             : Dolby Digital
Codec ID                    : A_AC3
Duration                    : 1 h 28 min
Bit rate mode               : Constant
Bit rate                    : 192 kb/s
Channel(s)                  : 2 channels
Channel layout              : L R
Sampling rate               : 48.0 kHz
Frame rate                  : 31.250 FPS (1536 SPF)
Bit depth                   : 16 bits
Compression mode            : Lossy
Stream size                 : 122 MiB (3%)
Service kind                : Complete Main
Default                     : Yes
Forced                      : No



Скриншоты:
[+] Всего файлов в раздаче - 1:
Lyubov ne po pravilam.2019.HDTV 1080p.by.White Smoke.R.G.Generalfilm.mkv4.49 GB

Показать еще раздачи по запросу любовь:
Вчера U Любовь не по правилам (2019) WEBRip-AVC от Files-x 1.37 GB ↑ 31 ↓ 11
2019-07-01 U Любовь не по правилам (2019) HDTVRip от GeneralFilm 745.20 MB ↑ 24 ↓ 14
2019-07-01 U Любовь не по правилам (2019) HDTVRip 720p от ExKinoRay 2.60 GB ↑ 35 ↓ 9
2019-06-30 U Любовь не по правилам (2019) WEBRip от Files-x 1.38 GB ↑ 158 ↓ 57
2019-06-20 U Секс, ложь, безумие / Любовь его мечты / Dream Lover (1993) LDRip | Unrated | P2, A 1.61 GB ↑ 35 ↓ 19
2019-06-07 U Любовь, смерть и роботы / Love, Death & Robots [S01] (2019) WEB-DL HEVC 1080p | HDR | BTI Studios, Кубик в Кубе 8.98 GB ↑ 38 ↓ 22
2019-05-26 U Мектуб, моя любовь / Mektoub, My Love: Canto Uno (2017) HDTVRip от Deadmauvlad | P 1.46 GB ↑ 64 ↓ 22

Отзывы
Зарегистрируйтесь чтобы добавить комментарий.
Обратная связь
Copyleft ©