↑↓Torrent.by
Поиск
Логин: Регистрация
Пароль: Восстановить пароль
Загрузка...

Шазам! / Shazam! (2019) BDRip-HEVC 1080p | Лицензия

Скачать shazam-2019-bdrip-hevc-1080p-licenziya.torrent
U Магнитная ссылка Размер: 11.00 GB Раздают: 121 Качают: 42 Добавлен: 2019-07-02 07:24:36
Шазам! / Shazam! (2019) BDRip-HEVC 1080p | Лицензия

Название: Шазам!
Оригинальное название: Shazam!
Год выхода: 2019
Жанр: Фэнтези, боевик, комедия, приключения

Режиссер: Дэвид Ф. Сандберг

В ролях: Закари Ливай, Эшер Энджел, Мишель Борт, Джимон Хонсу, Грэйс Фултон, Марк Стронг, Джек Дилан Грейзер, Марта Миланс, Мэган Гуд, Адам Броди, Фэйти Херман, Йен Чен, Росс Батлер, Йован Арман, Д.Дж. Котрона, Купер Эндрюс, Итан Пуджиотто, Джон Гловер, Кэролайн Палмер, Эмили Никсон, Лотта Лостен, Ивэн Марш, Миша Расайя

О фильме: В каждом из нас живет супергерой, нужна лишь толика магии, чтобы он проявил себя. Билли Бэтсон должен прокричать всего лишь одно слово — ШАЗАМ! — чтобы из сообразительного четырнадцатилетнего мальчишки превратиться во вполне себе взрослого супергероя Шазама, а все благодаря древнему волшебнику. В душе он остается ребенком, пусть и во взрослом могучем теле, поэтому поступает так, как поступил бы любой подросток, получивший сверхспособности, — оттягивается на полную катушку в этой подросшей версии себя самого! А умеет ли он летать? А есть ли у него рентгеновское зрение? Может ли он стрелять молниями из рук? А может ли пропустить контрольную по обществознанию? Шазам проверяет границы своих возможностей с бесшабашностью расшалившегося ребенка.

Страна: США
Продолжительность: 02:11:43
Перевод:Профессиональный (полное дублирование) | Лицензия

Файл
Кодек: H.265
Качество: BDRip-HEVC 1080p
Видео: HEVC, 1920x800 (2.40:1), 23.976 fps, 9 991 kb/s, 10bit
Аудио 1: AC3, 48.0 kHz, 6 ch, 448 kb/s | RUS
Аудио 2: DTS, 48.0 kHz, 6 ch, 1 509 kb/s | ENG
Субтитры: Русские (Forced, Full), английские (Full, SDH, SDH-Colored)

Семпл


[+] MI
General
Unique ID                                : 237533795161801481500098828654864865925 (0xB2B3584AC03059D6A516F1B6F5C99A85)
Complete name                            : Shazam!.(2019).1080p.BDRip.HEVC.mkv
Format                                   : Matroska
Format version                           : Version 4
File size                                : 11.0 GiB
Duration                                 : 2 h 11 min
Overall bit rate                         : 12.0 Mb/s
Encoded date                             : UTC 2019-07-01 09:28:28
Writing application                      : mkvmerge v8.3.0 ('Over the Horizon') 64bit
Writing library                          : libebml v1.3.1 + libmatroska v1.4.2

Video
ID                                       : 1
Format                                   : HEVC
Format/Info                              : High Efficiency Video Coding
Format profile                           : Main 10@L4@Main
Codec ID                                 : V_MPEGH/ISO/HEVC
Duration                                 : 2 h 11 min
Bit rate                                 : 9 991 kb/s
Width                                    : 1 920 pixels
Height                                   : 800 pixels
Display aspect ratio                     : 2.40:1
Frame rate mode                          : Constant
Frame rate                               : 23.976 (24000/1001) FPS
Color space                              : YUV
Chroma subsampling                       : 4:2:0
Bit depth                                : 10 bits
Bits/(Pixel*Frame)                       : 0.271
Stream size                              : 9.19 GiB (84%)
Writing library                          : x265 3.1_RC1+1-10decf67c077:[Windows][GCC 9.1.1][64 bit] 10bit
Encoding settings                        : cpuid=1111039 / frame-threads=4 / numa-pools=16 / wpp / no-pmode / no-pme / no-psnr / no-ssim / log-level=2 / input-csp=1 / input-res=1920x800 / interlace=0 / total-frames=189485 / level-idc=0 / high-tier=1 / uhd-bd=0 / ref=4 / no-allow-non-conformance / no-repeat-headers / annexb / no-aud / no-hrd / info / hash=0 / no-temporal-layers / open-gop / min-keyint=23 / keyint=250 / gop-lookahead=0 / bframes=8 / b-adapt=2 / b-pyramid / bframe-bias=0 / rc-lookahead=80 / lookahead-slices=4 / scenecut=40 / radl=0 / no-splice / no-intra-refresh / ctu=64 / min-cu-size=8 / no-rect / no-amp / max-tu-size=32 / tu-inter-depth=1 / tu-intra-depth=1 / limit-tu=0 / rdoq-level=2 / dynamic-rd=0.00 / no-ssim-rd / signhide / no-tskip / nr-intra=0 / nr-inter=0 / no-constrained-intra / no-strong-intra-smoothing / max-merge=3 / limit-refs=1 / limit-modes / me=3 / subme=5 / merange=57 / temporal-mvp / weightp / no-weightb / no-analyze-src-pics / deblock=-3:-3 / no-sao / no-sao-non-deblock / rd=4 / early-skip / no-rskip / no-fast-intra / no-tskip-fast / no-cu-lossless / b-intra / no-splitrd-skip / rdpenalty=0 / psy-rd=1.10 / psy-rdoq=1.00 / no-rd-refine / no-lossless / cbqpoffs=0 / crqpoffs=0 / rc=crf / crf=18.5 / qcomp=0.60 / qpstep=4 / stats-write=0 / stats-read=0 / ipratio=1.40 / pbratio=1.30 / aq-mode=3 / aq-strength=0.80 / cutree / zone-count=0 / no-strict-cbr / qg-size=32 / no-rc-grain / qpmax=69 / qpmin=0 / no-const-vbv / sar=0 / overscan=0 / videoformat=5 / range=0 / colorprim=2 / transfer=2 / colormatrix=2 / chromaloc=0 / display-window=0cll=0,0 / min-luma=0 / max-luma=1023 / log2-max-poc-lsb=8 / vui-timing-info / vui-hrd-info / slices=1 / no-opt-qp-pps / no-opt-ref-list-length-pps / no-multi-pass-opt-rps / scenecut-bias=0.05 / no-opt-cu-delta-qp / aq-motion / no-hdr / no-hdr-opt / no-dhdr10-opt / no-idr-recovery-sei / analysis-reuse-level=5 / scale-factor=0 / refine-intra=0 / refine-inter=0 / refine-mv=0 / refine-ctu-distortion=0 / no-limit-sao / ctu-info=0 / no-lowpass-dct / refine-analysis-type=0 / copy-pic=1 / max-ausize-factor=1.0 / no-dynamic-refine / no-single-sei / no-hevc-aq / no-svt / no-field / qp-adaptation-range=1.00
Language                                 : English
Default                                  : Yes
Forced                                   : No

Audio #1
ID                                       : 2
Format                                   : AC-3
Format/Info                              : Audio Coding 3
Commercial name                          : Dolby Digital
Codec ID                                 : A_AC3
Duration                                 : 2 h 11 min
Bit rate mode                            : Constant
Bit rate                                 : 448 kb/s
Channel(s)                               : 6 channels
Channel layout                           : L R C LFE Ls Rs
Sampling rate                            : 48.0 kHz
Frame rate                               : 31.250 FPS (1536 SPF)
Bit depth                                : 16 bits
Compression mode                         : Lossy
Stream size                              : 422 MiB (4%)
Language                                 : Russian
Default                                  : Yes
Forced                                   : No

Audio #2
ID                                       : 3
Format                                   : DTS
Format/Info                              : Digital Theater Systems
Codec ID                                 : A_DTS
Duration                                 : 2 h 11 min
Bit rate mode                            : Constant
Bit rate                                 : 1 509 kb/s
Channel(s)                               : 6 channels
Channel layout                           : C L R Ls Rs LFE
Sampling rate                            : 48.0 kHz
Frame rate                               : 93.750 FPS (512 SPF)
Bit depth                                : 24 bits
Compression mode                         : Lossy
Stream size                              : 1.39 GiB (13%)
Language                                 : English
Default                                  : No
Forced                                   : No

Text #1
ID                                       : 4
Format                                   : UTF-8
Codec ID                                 : S_TEXT/UTF8
Codec ID/Info                            : UTF-8 Plain Text
Duration                                 : 2 h 10 min
Bit rate                                 : 2 b/s
Count of elements                        : 67
Stream size                              : 2.00 KiB (0%)
Title                                    : Forced
Language                                 : Russian
Default                                  : Yes
Forced                                   : Yes

Text #2
ID                                       : 5
Format                                   : UTF-8
Codec ID                                 : S_TEXT/UTF8
Codec ID/Info                            : UTF-8 Plain Text
Duration                                 : 2 h 10 min
Bit rate                                 : 65 b/s
Count of elements                        : 1756
Stream size                              : 62.9 KiB (0%)
Title                                    : Full
Language                                 : Russian
Default                                  : No
Forced                                   : No

Text #3
ID                                       : 6
Format                                   : UTF-8
Codec ID                                 : S_TEXT/UTF8
Codec ID/Info                            : UTF-8 Plain Text
Duration                                 : 2 h 10 min
Bit rate                                 : 52 b/s
Count of elements                        : 1728
Stream size                              : 49.9 KiB (0%)
Title                                    : Full
Language                                 : English
Default                                  : No
Forced                                   : No

Text #4
ID                                       : 7
Format                                   : UTF-8
Codec ID                                 : S_TEXT/UTF8
Codec ID/Info                            : UTF-8 Plain Text
Duration                                 : 2 h 10 min
Bit rate                                 : 64 b/s
Count of elements                        : 2182
Stream size                              : 61.7 KiB (0%)
Title                                    : SDH
Language                                 : English
Default                                  : No
Forced                                   : No

Text #5
ID                                       : 8
Format                                   : UTF-8
Codec ID                                 : S_TEXT/UTF8
Codec ID/Info                            : UTF-8 Plain Text
Duration                                 : 2 h 11 min
Bit rate                                 : 94 b/s
Count of elements                        : 2155
Stream size                              : 90.7 KiB (0%)
Title                                    : SDH Colored
Language                                 : English
Default                                  : No
Forced                                   : No

Menu
00:00:00.000                             : en:Chapter 01
00:08:18.790                             : en:Chapter 02
00:15:11.285                             : en:Chapter 03
00:25:22.396                             : en:Chapter 04
00:31:57.624                             : en:Chapter 05
00:39:00.255                             : en:Chapter 06
00:50:07.713                             : en:Chapter 07
01:01:28.810                             : en:Chapter 08
01:08:51.502                             : en:Chapter 09
01:16:40.471                             : en:Chapter 10
01:24:29.356                             : en:Chapter 11
01:34:00.677                             : en:Chapter 12
01:43:01.175                             : en:Chapter 13
01:52:53.850                             : en:Chapter 14
02:00:44.446                             : en:Chapter 15



Скриншоты:
[+] Всего файлов в раздаче - 1:
Shazam!.(2019).1080p.BDRip.HEVC.mkv11.00 GB

Показать еще раздачи по запросу шазам:
2019-08-03 U Шазам! / Shazam! (2019) HDRip от ExKinoRay | D | Лицензия 790.48 MB ↑ 65 ↓ 13
2019-07-16 U Шазам! / Shazam! (2019) BDRip 1080p от Ash61 | 3D-Video | halfOU | Лицензия 14.06 GB ↑ 46 ↓ 50
2019-07-07 U Шазам! / Shazam! (2019) BDRip-HEVC 1080p | Лицензия 5.97 GB ↑ 201 ↓ 115
2019-07-07 U Шазам! / Shazam! (2018) BDRip от HQ-ViDEO | Лицензия 2.18 GB ↑ 251 ↓ 75
2019-07-03 U Шазам! / Shazam! (2019) BDRip 1080p от qqss44 & MegaPeer | Лицензия 7.75 GB ↑ 129 ↓ 52
2019-06-29 U Шазам! / Shazam! (2019) BDRip от Twister & ExKinoRay | Лицензия 1.47 GB ↑ 183 ↓ 51
2019-06-29 U Шазам! / Shazam! (2019) BDRip от Twister & ExKinoRay | Лицензия 2.18 GB ↑ 440 ↓ 91

Отзывы
Зарегистрируйтесь чтобы добавить комментарий.
Обратная связь
Copyleft ©