↑↓Torrent.by
Поиск
Логин: Регистрация
Пароль: Восстановить пароль
Загрузка...

Два билета домой (2018) WEB-DLRip-AVC от New-Team

Скачать dva-bileta-domoy-2018-web-dlrip-avc-ot-new-team.torrent
U Магнитная ссылка Размер: 1.43 GB Раздают: 82 Качают: 13 Добавлен: 2019-07-02 07:25:04
Два билета домой (2018) WEB-DLRip-AVC от New-Team

Два билета домой

Страна: Россия
Жанр:  драма
Год выпуска: 2018
Продолжительность: 01:34:01

Перевод: Не требуется
Субтитры: нет
Оригинальная аудиодорожка: русский

Режиссер: Дмитрий Месхиев

В ролях: Мария Скуратова, Сергей Гармаш, Камиль Хардин, Евгений Ткачук, Наталья Суркова, Ирина Рахманова, Ирина Розанова, Роман Агеев, Валерий Болданюк, Виктория Плоп

Описание: Люба Васнецова живет в провинциальном интернате, мечтает поскорее его закончить, уехать в Санкт-Петербург и стать стюардессой. Будущее кажется прекрасным - после окончания интерната ей вручают ключи от квартиры, впереди новая жизнь. Но в день своего выпускного она узнает, что она не круглая сирота - ее отец жив, а не погиб, как рассказывали ей раньше. Потрясенная девушка решает его найти.

Релиз:

Автор рипа: stalkerok

Семпл

Качество видео: WEB-DLRip-AVC | Исходник: Dva.bileta.domoy.2018.WEB-DL.(1080p).Getty
Формат видео: MKV
Видео кодек: AVC
Аудио кодек: AC3
Видео: AVC, 1990 Кбит/сек, 1024x576 (16:9), 25 кадр/сек
Аудио: AC3, 192 Кбит/сек, 48 КГц, 2.0 - русский


[+] x264/MediaInfo


---[Information] [01.07.2019 13:38:31] x264 [info]: frame I:1028  Avg QP:18.05  size: 54539
---[Information] [01.07.2019 13:38:31] x264 [info]: frame P:35088 Avg QP:19.58  size: 21526
---[Information] [01.07.2019 13:38:31] x264 [info]: frame B:104884 Avg QP:22.23  size:  5641

General
Unique ID                                : 90216548155180902735669270706705057960 (0x43DF133D7F6E420974BE509C1796C8A8)
Complete name                            : C:tempDva bileta domoyDva.bileta.domoy.2018.WEB-DLRip.x264.Rus.stalkerok.New-Team.mkv
Format                                   : Matroska
Format version                           : Version 4 / Version 2
File size                                : 1.43 GiB
Duration                                 : 1 h 34 min
Overall bit rate                         : 2 184 kb/s
Movie name                               : Два билета домой (2018) | Rip by stalkerok
Encoded date                             : UTC 2019-07-01 10:41:32
Writing application                      : mkvmerge v33.1.0 ('Primrose') 64-bit
Writing library                          : libebml v1.3.7 + libmatroska v1.5.0

Video
ID                                       : 1
Format                                   : AVC
Format/Info                              : Advanced Video Codec
Format profile                           : High@L4.1
Format settings, CABAC                   : Yes
Format settings, ReFrames                : 12 frames
Codec ID                                 : V_MPEG4/ISO/AVC
Duration                                 : 1 h 34 min
Bit rate                                 : 1 990 kb/s
Width                                    : 1 024 pixels
Height                                   : 576 pixels
Display aspect ratio                     : 16:9
Frame rate mode                          : Constant
Frame rate                               : 25.000 FPS
Color space                              : YUV
Chroma subsampling                       : 4:2:0
Bit depth                                : 8 bits
Scan type                                : Progressive
Bits/(Pixel*Frame)                       : 0.135
Stream size                              : 1.31 GiB (91%)
Title                                    : Два билета домой (2018) | Rip by stalkerok
Writing library                          : x264 core 157 r2945 72db437
Encoding settings                        : cabac=1 / ref=12 / deblock=1:-3:-2 / analyse=0x3:0x133 / me=umh / subme=10 / psy=1 / psy_rd=1.00:0.00 / mixed_ref=1 / me_range=32 / chroma_me=1 / trellis=2 / 8x8dct=1 / cqm=0 / deadzone=21,11 / fast_pskip=0 / chroma_qp_offset=-2 / threads=12 / lookahead_threads=3 / sliced_threads=0 / nr=0 / decimate=1 / interlaced=0 / bluray_compat=0 / constrained_intra=0 / bframes=14 / b_pyramid=2 / b_adapt=2 / b_bias=0 / direct=3 / weightb=1 / open_gop=0 / weightp=2 / keyint=250 / keyint_min=25 / scenecut=40 / intra_refresh=0 / rc_lookahead=60 / rc=crf / mbtree=0 / crf=19.1 / qcomp=0.65 / qpmin=0 / qpmax=69 / qpstep=4 / vbv_maxrate=50000 / vbv_bufsize=62500 / crf_max=0.0 / nal_hrd=none / filler=0 / ip_ratio=1.40 / pb_ratio=1.30 / aq=3:0.80 / zones=134636,140999,q=32
Language                                 : Russian
Default                                  : Yes
Forced                                   : No

Audio
ID                                       : 2
Format                                   : AC-3
Format/Info                              : Audio Coding 3
Mode extension                           : CM (complete main)
Format settings, Endianness              : Big
Codec ID                                 : A_AC3
Duration                                 : 1 h 34 min
Bit rate mode                            : Constant
Bit rate                                 : 192 kb/s
Channel(s)                               : 2 channels
Channel positions                        : Front: L R
Sampling rate                            : 48.0 kHz
Frame rate                               : 31.250 FPS (1536 spf)
Compression mode                         : Lossy
Stream size                              : 129 MiB (9%)
Language                                 : Russian
Default                                  : Yes
Forced                                   : No




Скриншоты:
[+] Всего файлов в раздаче - 1:
Dva.bileta.domoy.2018.WEB-DLRip.x264.Rus.stalkerok.New-Team.mkv1.43 GB

Показать еще раздачи по запросу билета:
2019-07-02 U Два билета домой (2018) WEB-DLRip-AVC от New-Team 750.32 MB ↑ 36 ↓ 19
2019-07-02 U Два билета домой (2018) WEB-DL 720p от ExKinoRay 1.81 GB ↑ 60 ↓ 18
2019-07-02 U Два билета домой (2018) WEB-DLRip от GeneralFilm 1.37 GB ↑ 95 ↓ 38
2019-07-02 U Два билета домой (2018) WEB-DLRip от Files-x 747.15 MB ↑ 92 ↓ 16
2019-07-01 U Два билета домой (2018) WEB-DL 1080p 4К3.49 GB ↑ 190 ↓ 164
2018-07-18 U Андрей Круз, Андрей Царёв - Земли лишних. Андрей Новиков 1. Два билета туда (2018) МР3 740.76 MB ↑ 136 ↓ 18
2018-03-31 U Два лотерейных билета / Doua lozuri (2016) DVDRip | GreenРай Studio 1.41 GB ↑ 137 ↓ 23

Отзывы
Зарегистрируйтесь чтобы добавить комментарий.
Обратная связь
Copyleft ©