↑↓Torrent.by
Поиск
Логин: Регистрация
Пароль: Восстановить пароль
Загрузка...

Два билета домой (2018) WEB-DLRip от GeneralFilm

Скачать dva-bileta-domoy-2018-web-dlrip-ot-generalfilm.torrent
U Магнитная ссылка Размер: 1.37 GB Раздают: 98 Качают: 38 Добавлен: 2019-07-02 07:25:11
Два билета домой (2018) WEB-DLRip от GeneralFilm

Оригинальное название: Два билета домой
Год выпуска: 2018
Жанр:  Мелодрама
Выпущено: Россия, АНО "КиноДело"
Режиссер: Дмитрий Месхиев
В ролях: Сергей Гармаш, Мария Скуратова (II), Камиль Хардин, Евгений Ткачук, Наталья Суркова, Ирина Рахманова, Ирина Розанова, Виктория Плоп

О фильме: Люба Васнецова живет в провинциальном интернате, мечтает поскорее его закончить, уехать в Санкт-Петербург и стать стюардессой. Будущее кажется прекрасным — после окончания интерната ей вручают ключи от квартиры, впереди новая жизнь. Но в день своего выпускного она узнает, что она не круглая сирота — ее отец жив, а не погиб, как рассказывали ей раньше. Потрясенная девушка решает его найти

Качество: WEB-DLRip
Видео: XviD build 73, 720x400 (16:9), 25.000 fps, 1881 Kbps (0.261 bit/pixel)
Аудио: 48.0 kHz, AC3, 2/0 ch, 192 kbps
Продолжительность: 01:34:00
Перевод: Не требуется [Русский]
Cубтитры: нет

Релиз:


[+] MediaInfo
General
Complete name               : D:RazdachiDva.Bileta.Domoj.2018.WEB-DLRip.GeneralFilm.avi
Format                      : AVI
Format/Info                 : Audio Video Interleave
File size                   : 1.37 GiB
Duration                    : 1 h 34 min
Overall bit rate            : 2 083 kb/s
Writing application         : VirtualDubMod 1.5.10.3 | www.virtualdub-fr.org || (build 2550/release)
Writing library             : VirtualDubMod build 2550/release

Video
ID                          : 0
Format                      : MPEG-4 Visual
Format profile              : Advanced Simple@L5
Format settings             : BVOP1 / Custom Matrix
Format settings, BVOP       : 1
Format settings, QPel       : No
Format settings, GMC        : No warppoints
Format settings, Matrix     : Custom
Codec ID                    : XVID
Codec ID/Hint               : XviD
Duration                    : 1 h 34 min
Bit rate                    : 1 881 kb/s
Width                       : 720 pixels
Height                      : 400 pixels
Display aspect ratio        : 16:9
Frame rate                  : 25.000 FPS
Color space                 : YUV
Chroma subsampling          : 4:2:0
Bit depth                   : 8 bits
Scan type                   : Progressive
Compression mode            : Lossy
Bits/(Pixel*Frame)          : 0.261
Stream size                 : 1.24 GiB (90%)
Writing library             : XviD 73

Audio
ID                          : 1
Format                      : AC-3
Format/Info                 : Audio Coding 3
Commercial name             : Dolby Digital
Codec ID                    : 2000
Duration                    : 1 h 34 min
Bit rate mode               : Constant
Bit rate                    : 192 kb/s
Channel(s)                  : 2 channels
Channel layout              : L R
Sampling rate               : 48.0 kHz
Frame rate                  : 31.250 FPS (1536 SPF)
Bit depth                   : 16 bits
Compression mode            : Lossy
Stream size                 : 129 MiB (9%)
Alignment                   : Split accross interleaves
Interleave, duration        : 40  ms (1.00 video frame)
Interleave, preload duratio : 500  ms
Service kind                : Complete Main



Скриншоты:
[+] Всего файлов в раздаче - 1:
Dva.Bileta.Domoj.2018.WEB-DLRip.GeneralFilm.avi1.37 GB

Показать еще раздачи по запросу билета:
2019-07-02 U Два билета домой (2018) WEB-DLRip-AVC от New-Team 750.32 MB ↑ 35 ↓ 20
2019-07-02 U Два билета домой (2018) WEB-DL 720p от ExKinoRay 1.81 GB ↑ 60 ↓ 18
2019-07-02 U Два билета домой (2018) WEB-DLRip-AVC от New-Team 1.43 GB ↑ 82 ↓ 13
2019-07-02 U Два билета домой (2018) WEB-DLRip от Files-x 747.15 MB ↑ 92 ↓ 16
2019-07-01 U Два билета домой (2018) WEB-DL 1080p 4К3.49 GB ↑ 191 ↓ 164
2018-07-18 U Андрей Круз, Андрей Царёв - Земли лишних. Андрей Новиков 1. Два билета туда (2018) МР3 740.76 MB ↑ 136 ↓ 18
2018-03-31 U Два лотерейных билета / Doua lozuri (2016) DVDRip | GreenРай Studio 1.41 GB ↑ 137 ↓ 23

Отзывы
Зарегистрируйтесь чтобы добавить комментарий.
Обратная связь
Copyleft ©