↑↓Torrent.by
Поиск
Логин: Регистрация
Пароль: Восстановить пароль
Загрузка...

Беловодье. Тайна затерянной страны [01-12 из 12] (2016) WEB-DLRip от GeneralFilm

Скачать belovode-tayna-zateryannoy-strany-01-12-iz-2016-web-dlrip-ot-generalfilm.torrent
U Магнитная ссылка Размер: 6.53 GB Раздают: 65 Качают: 110 Добавлен: 2019-07-02 07:25:15
Беловодье. Тайна затерянной страны [01-12 из 12] (2016) WEB-DLRip от GeneralFilm

Оригинальное название: Беловодье. Тайна затерянной страны
Год выпуска: 2016
Жанр:  Мистика, приключения, фэнтези
Выпущено: Россия, «ИВД Кино»
Режиссер: Евгений Бедарев
В ролях: Александр Петров (II), Светлана Суханова, Татьяна Орлова, Алексей Васильев (II), Алла Подчуфарова, Юлия Самойленко, Павел Крайнов, Роман Курцын, Марианна Шульц, Залим Мирзоев, Сергей Майоров (III), Любовь Виролайнен, Александр Пальчиков, Екатерина Ефимова, Руслан Спояло, Евгений Морозов, Данила Якушев, Рустам Махмутов, Дарья Макарова, Алёна Ковалёва, Михаил Хмуров, Николай Токарев, Дмитрий Бедарев, Максим Важов, Елена Аросьева

О фильме: Герои самого зрелищного российского фэнтези-сериала «Пока цветет папоротник» возвращаются на экраны в новой полной приключений и волшебства истории «Беловодье. Тайна затерянной страны». Страшная тайна Хранителей открыта. Провал земли в заброшенном горном монастыре освободил силу, которая угрожает всей жизни на Земле. В параллельных мирах развернулась борьба за власть, каждый ведет свою смертельную игру, и понять, кто враг, а кто друг невозможно. Остается только один шанс на спасение. Но для последней Надежды нужна крепкая Вера и страстная Любовь.

Качество: WEB-DLRip
Видео: XviD build 73, 720x400 (16:9), 25.000 fps, ~ 1430 Kbps (~ 0.199 bit/pixel)
Аудио: 48.0 kHz, AC3, 2/0 ch, 192 kbps
Продолжительность: 12 х ~ 00:48:00
Перевод: Не требуется [Русский]
Cубтитры: нет

Релиз:


[+] MediaInfo
General
Complete name               : D:RazdachiBelovodje.2016.WEB-DLRip.GeneralFilmBelovodje.e01.avi
Format                      : AVI
Format/Info                 : Audio Video Interleave
File size                   : 557 MiB
Duration                    : 47 min 43 s
Overall bit rate            : 1 632 kb/s
Writing application         : VirtualDubMod 1.5.10.3 | www.virtualdub-fr.org || (build 2550/release)
Writing library             : VirtualDubMod build 2550/release

Video
ID                          : 0
Format                      : MPEG-4 Visual
Format profile              : Advanced Simple@L5
Format settings             : BVOP1 / Custom Matrix
Format settings, BVOP       : 1
Format settings, QPel       : No
Format settings, GMC        : No warppoints
Format settings, Matrix     : Custom
Codec ID                    : XVID
Codec ID/Hint               : XviD
Duration                    : 47 min 43 s
Bit rate                    : 1 430 kb/s
Width                       : 720 pixels
Height                      : 400 pixels
Display aspect ratio        : 16:9
Frame rate                  : 25.000 FPS
Color space                 : YUV
Chroma subsampling          : 4:2:0
Bit depth                   : 8 bits
Scan type                   : Progressive
Compression mode            : Lossy
Bits/(Pixel*Frame)          : 0.199
Stream size                 : 488 MiB (88%)
Writing library             : XviD 73

Audio
ID                          : 1
Format                      : AC-3
Format/Info                 : Audio Coding 3
Commercial name             : Dolby Digital
Codec ID                    : 2000
Duration                    : 47 min 43 s
Bit rate mode               : Constant
Bit rate                    : 192 kb/s
Channel(s)                  : 2 channels
Channel layout              : L R
Sampling rate               : 48.0 kHz
Frame rate                  : 31.250 FPS (1536 SPF)
Bit depth                   : 16 bits
Compression mode            : Lossy
Stream size                 : 65.5 MiB (12%)
Alignment                   : Split accross interleaves
Interleave, duration        : 40  ms (1.00 video frame)
Interleave, preload duratio : 500  ms
Service kind                : Complete Main



Скриншоты:
[+] Всего файлов в раздаче - 12:
Belovodje.e01.avi557.11 MB
Belovodje.e02.avi557.09 MB
Belovodje.e03.avi556.96 MB
Belovodje.e04.avi556.91 MB
Belovodje.e05.avi557.22 MB
Belovodje.e06.avi556.90 MB
Belovodje.e07.avi558.39 MB
Belovodje.e08.avi556.98 MB
Belovodje.e09.avi556.60 MB
Belovodje.e10.avi556.86 MB
Belovodje.e11.avi557.01 MB
Belovodje.e12.avi556.82 MB

Показать еще раздачи по запросу беловодье:
2019-07-02 U Беловодье. Тайна затерянной страны [01-12 из 12] (2016) WEB-DLRip-AVC от GeneralFilm 7.03 GB ↑ 90 ↓ 147
2019-07-02 U Беловодье. Тайна затерянной страны [01-12 из 12] (2016) WEB-DLRip 7.03 GB ↑ 166 ↓ 204
2019-06-26 U Беловодье. Тайна затерянной страны [01-10 из 12] (2016) WEB-DLRip от Files-x 6.02 GB ↑ 45 ↓ 65
2019-06-25 U Беловодье. Тайна затерянной страны [01-10 из 12] (2016) WEB-DLRip 5.86 GB ↑ 41 ↓ 49
2019-06-25 U Беловодье. Тайна затерянной страны [01-10 из 12] (2016) WEBRip 1080p 17.72 GB ↑ 64 ↓ 143
2019-06-19 U Беловодье. Тайна затерянной страны [01-06 из 12] (2016) WEB-DLRip от Files-x 1К3.61 GB ↑ 30 ↓ 12
2019-06-19 U Беловодье. Тайна затерянной страны [01-06 из 12] (2016) WEB-DLRip 3.51 GB ↑ 36 ↓ 24

Отзывы
Зарегистрируйтесь чтобы добавить комментарий.
Обратная связь
Copyleft ©