↑↓Torrent.by
Поиск
Логин: Регистрация
Пароль: Восстановить пароль
Загрузка...

Пусть будет Лиза (2018) WEB-DL 1080p | iTunes

Скачать pust-budet-liza-2018-web-dl-1080p-itunes.torrent
U Магнитная ссылка Размер: 2.86 GB Раздают: 42 Качают: 18 Добавлен: 2019-07-02 07:25:29
Пусть будет Лиза (2018) WEB-DL 1080p | iTunes

Пусть будет Лиза

Страна: Россия
Производство: МЕТРОНОМ фильм
Год выпуска: 2018
Жанр:  драма
Продолжительность: 01:22:06

Режиссер: Игорь Каграманов
В ролях: Елена Махова, Наталья Павленкова, Виктор Потапешкин, Алексей Розин, Ирина Жерякова, Соня Ривкин

Описание: Катя с мужем и матерью живёт в небольшом провинциальном городке и работает на местном заводе. Мать внезапно заболевает и хочет переписать всё имущество на сына — родного брата Кати. Катя чувствует несправедливость этого решения и начинает борьбу за наследство. В погоне за мнимым материальным благополучием Катя решается на самый отчаянный поступок...

Перевод: не требуется (оригинал) | iTunes
Субтитры: нет

Качество: WEB-DL 1080p
Формат: MKV
Видео кодек: AVC
Аудио кодек: AC3
Видео: 1920x806 (2.40:1), 25.000 fps, MPEG-4 AVC ~4 496 kbps avg
Аудио: 48.0 kHz, AC3 Dolby Digital, 3/2 (L,C,R,l,r) + LFE ch, ~384 kbps

Дата премьеры (мир): 8 ноября 2018


[+] Media Info
General
Уникальный идентификатор                 : 188330516959846614499826959697732659593 (0x8DAF23616F5A4A378626307A14976989)
Полное имя                               : LET_IT_BE_LIZA_2018_WEB_DL_1080p-BLUEBIRD.mkv
Формат                                   : Matroska
Версия формата                           : Version 4 / Version 2
Размер файла                             : 2.86 GiB
Продолжительность                        : 1 h 22 min
Общий поток                              : 4 979 kb/s
Название фильма                          : LET_IT_BE_LIZA_2018_WEB_DL_1080p-BLUEBIRD
Дата кодирования                         : UTC 2019-06-30 18:55:55
Программа кодирования                    : mkvmerge v6.9.1 ('Blue Panther') 32bit built on Apr 18 2014 18:15:44
Библиотека кодирования                   : libebml v1.3.0 + libmatroska v1.4.1
Обложка                                  : Yes

Video
Идентификатор                            : 1
Формат                                   : AVC
Формат/Информация                        : Advanced Video Codec
Профиль формата                          : High@L4
Настройки формата                        : CABAC / 5 Ref Frames
Параметр CABAC формата                   : Yes
Параметр RefFrames формата               : 5 frames
Идентификатор кодека                     : V_MPEG4/ISO/AVC
Продолжительность                        : 1 h 22 min
Битрейт                                  : 4 496 kb/s
Ширина                                   : 1 920 pixels
Высота                                   : 806 pixels
Соотношение сторон                       : 2.40:1
Режим частоты кадров                     : Constant
Частота кадров                           : 25.000 FPS
Цветовое пространство                    : YUV
Субдискретизация насыщенности            : 4:2:0
Битовая глубина                          : 8 bits
Тип развёртки                            : Progressive
Бит/(Пиксели*Кадры)                      : 0.116
Размер потока                            : 2.58 GiB (90%)
Заголовок                                : LET_IT_BE_LIZA_2018_WEB_DL_1080p-BLUEBIRD
Язык                                     : English
Default                                  : Yes
Forced                                   : No
Цветовой диапазон                        : Limited
Основные цвета                           : BT.709
Характеристики трансфера                 : BT.709
Коэффициенты матрицы                     : BT.709

Audio
Идентификатор                            : 2
Формат                                   : AC-3
Формат/Информация                        : Audio Coding 3
Идентификатор кодека                     : A_AC3
Продолжительность                        : 1 h 22 min
Вид битрейта                             : Constant
Битрейт                                  : 384 kb/s
Каналы                                   : 6 channels
Расположение каналов                     : Front: L C R, Side: L R, LFE
Частота                                  : 48.0 kHz
Частота кадров                           : 31.250 FPS (1536 SPF)
Битовая глубина                          : 16 bits
Метод сжатия                             : Lossy
Размер потока                            : 226 MiB (8%)
Заголовок                                : [ORIGINAL] DD 5.1 @ 384 kbps (iTunes)
Язык                                     : Russian
Default                                  : Yes
Forced                                   : No

Menu
00:00:00.000                             : en:Глава 1
00:06:33.640                             : en:Глава 2
00:11:56.200                             : en:Глава 3
00:18:34.000                             : en:Глава 4
00:27:26.640                             : en:Глава 5
00:37:49.680                             : en:Глава 6
00:45:30.000                             : en:Глава 7
00:53:19.720                             : en:Глава 8
01:00:17.080                             : en:Глава 9
01:07:43.240                             : en:Глава 10
01:15:02.840                             : en:Глава 11



Скриншоты:
[+] Всего файлов в раздаче - 1:
LET_IT_BE_LIZA_2018_WEB_DL_1080p-BLUEBIRD.mkv2.86 GB

Показать еще раздачи по запросу пусть:
2019-07-01 U Пусть будет Лиза (2018) WEB-DLRip | iTunes 1.36 GB ↑ 83 ↓ 38
2018-07-30 U Пусть трупы позагорают / Laissez bronzer les cadavres (2017) HDRip-AVC от ExKinoRay | BadBajo 746.28 MB ↑ 129 ↓ 12
2018-07-29 U Пусть трупы позагорают / Laissez bronzer les cadavres (2017) BDRip 1080p | BadBajo 14.18 GB ↑ 197 ↓ 116
2018-07-29 U Пусть трупы позагорают / Laissez bronzer les cadavres (2017) HDRip от ExKinoRay | BadBajo 1К1.45 GB ↑ 364 ↓ 108
2017-08-28 U Новые русские сенсации: Пусть говорит Малахов (2017) HDTVRip от Generalfilm 550.38 MB ↑ 60 ↓ 12
2014-03-26 U Пусть говорят. Жизнь после Аршавина [эфир от 25.03] (2014) SATRip 737.14 MB ↑ 51 ↓ 27
2014-01-21 U Пусть говорят - Жанна, живи [эфир от 20.01] (2014) SATRip 610.98 MB ↑ 139 ↓ 51

Отзывы
Зарегистрируйтесь чтобы добавить комментарий.
Обратная связь
Copyleft ©