↑↓torrent.by
Поиск
Логин: Регистрация
Пароль: Восстановить пароль

Что, если...? / What If...? [01x01-05 из 09] (2021) WEB-DL 1080p | HDrezka Studio

Скачать chto-esli-what-if-01x01-05-iz-09-2021-web-dl-1080p-hdrezka-studio.torrent
U Магнитная ссылка Размер: 7.95 GB Раздают: 49 Качают: 245 Добавлен: 2021-09-09 16:46:50
Что, если...? / What If...? [01x01-05 из 09] (2021) WEB-DL 1080p | HDrezka Studio

Название: Что, если...?
Оригинальное название: What If...?
Год выхода: 2021
Жанр: мультфильм, фэнтези, боевик, приключения
Режиссер: Брайан Эндрюс
В ролях: Джеффри Райт, Чэдвик Боузмэн, Хейли Этвелл, Доминик Купер, Шон Ганн, Джимон Хонсу, Сэмюэл Л. Джексон, Тоби Джонс, Нил МакДонаф, Майкл Рукер

О фильме: Что если сыворотку суперсолдата вместо Стива Роджерса получила бы Пегги Картер? А Звездным Лордом стал не принадлежащий к королевским кровям Т`Чалла? А инициатива «Мстители» где-то свернула не туда, и это привело бы к апокалипсису? Да ну, ерунда какая-то! Такова первая реакция, но зачем сдерживать свою фантазию, если это вполне себе канон. Как так может быть? С полноценным введением мультивселенной в сериале «Локи» вариаций одних и тех же событий оказалось масса. А для других временных линий именно эти сюжеты и являются классическими. Чтобы подготовить зрителей к тому, что теперь в киновселенной Marvel возможны любые сюрпризы, а правила игры могут быть переписаны подчистую, нам представляют сериал «Что если?..». Причем это первое анимационное шоу в КВМ, что дает ему некоторые преимущества — динамику развития историй, сочную графику в экшен-сценах, непривычный вид полюбившихся, но выбравших иной путь героев. История написана так, что вы будете получать удовольствие от узнавания некоторых сцен и альянсов. С другой стороны, здесь все по-новому — предыстории, мотивы, даже характеры Мстителей. Так что максимально широко откройте свой разум и приготовьтесь удивляться. Ведь этого эффекта студия Marvel умеет добиваться как ни одна другая.

Очередное могущественное существо по имени Наблюдатель (Джеффри Райт) напоминает нам, что время, пространство и материя — калейдоскоп разных вариаций одних и тех же событий. В нашей старой доброй КВМ мы привыкли к Стиву Роджерсу, как суперсолдату, переломившему ход войны, Т`Чалле (Чедвик Боузман), как гордому правителю Ваканды, а Локи — как изворотливой занозе, путающей все планы старшего брата. Но что если Стив (Джошуа Китон) остался застенчивым хиляком из Бруклина, а вместо суперсилы получил суперброню от Говарда Старка (Доминик Купер)? Пегги стала Капитаном Картер (Хейли Этвелл) и символом свободной Америки. Баки (Себастьян Стэн) не попал в плен «Гидры» и не лишился руки. А Ник Фьюри (Сэмюэл Л. Джексон) ошибся с новым составом Мстителей, и те довели мир до зомби-апокалипсиса. Звучит как феерическая выдумка, но это истина для одного из миллиарда миров. Познакомьтесь с новыми Мстителями — более мрачным Доктором Стрэнджем и совсем не таким серьезным Т`Чаллой, который теперь и не Черная Пантера, и не Звездный Лорд. Три Человека-паука, работающих вместе? Запросто! Мертвые и зловещие Капитан Америка и Железный человек? Имеются! Вот только как эти вариации повлияют на основной таймлайн и в чем на самом деле интерес таинственного Наблюдателя?

Страна:  США
Студия: Flying Bark Productions, Marvel Studios Inc.
Продолжительность: ~00:30:00 серия
Перевод: Профессиональный (многоголосый, закадровый) HDrezka Studio

Файл
Качество: WEB-DL 1080p | What.If.S01.1080p.DSNP.WEBRip.DDP5.1.Atmos.x264-NOGRP/FLUX
Формат: Matroska
Видео: 1920x1080 at 24.000 fps, MPEG4-AVC, ~6300 kbps avg
Аудио#1:  Russian: 48 kHz, AC3, 3/2 (L,C,R,l,r) + LFE ch, ~448 kbps avg |Многоголосый закадровый, HDrezka Studio|
Аудио#2:  English: 48 kHz, E-AC3, 3/2 (L,C,R,l,r) + LFE ch, ~768 kbps avg
Субтитры: Russian (Forced, Full), English (SDH) и другие

***Примечание: Без рекламы


[+] MediaInfo
Общее
Уникальный идентификатор                 : 143178899652480871543179252334706215987 (0x6BB740C636E79BCDA864158476CECC33)
Полное имя                               : What.If.S01E01.mkv
Формат                                   : Matroska
Версия формата                           : Version 4
Размер файла                             : 1,64 Гбайт
Продолжительность                        : 31 м. 12 с.
Режим общего битрейта                    : Переменный
Общий поток                              : 7 516 Кбит/сек
Название фильма                          : What If...? S01E01 | mrrvg@rutor
Дата кодирования                         : UTC 2021-08-12 03:22:24
Программа кодирования                    : mkvmerge v52.0.0 ('Secret For The Mad') 64-bit
Библиотека кодирования                   : libebml v1.4.1 + libmatroska v1.6.2

Видео
Идентификатор                            : 1
Формат                                   : AVC
Формат/Информация                        : Advanced Video Codec
Профиль формата                          : High@L4
Настройки формата                        : CABAC / 4 Ref Frames
Параметр CABAC формата                   : Да
Параметр RefFrames формата               : 4 кадра
Идентификатор кодека                     : V_MPEG4/ISO/AVC
Продолжительность                        : 31 м. 12 с.
Вид битрейта                             : Переменный
Битрейт                                  : 6 296 Кбит/сек
Максимальный битрейт                     : 12,7 Мбит/сек
Ширина                                   : 1 920 пикселей
Высота                                   : 1 080 пикселей
Соотношение сторон                       : 16:9
Режим частоты кадров                     : Постоянный
Частота кадров                           : 24,000 кадра/сек
Цветовое пространство                    : YUV
Субдискретизация насыщенности            : 4:2:0
Битовая глубина                          : 8 бит
Тип развёртки                            : Прогрессивная
Бит/(Пиксели*Кадры)                      : 0.127
Размер потока                            : 1,37 Гбайт (84%)
Default                                  : Да
Forced                                   : Нет
Цветовой диапазон                        : Limited
Основные цвета                           : BT.709
Характеристики трансфера                 : BT.709
Коэффициенты матрицы                     : BT.709

Аудио #1
Идентификатор                            : 2
Формат                                   : AC-3
Формат/Информация                        : Audio Coding 3
Коммерческое название                    : Dolby Digital
Идентификатор кодека                     : A_AC3
Продолжительность                        : 31 м. 12 с.
Вид битрейта                             : Постоянный
Битрейт                                  : 448 Кбит/сек
Каналы                                   : 6 каналов
Channel layout                           : L R C LFE Ls Rs
Частота                                  : 48,0 КГц
Частота кадров                           : 31,250 кадров/сек (1536 SPF)
Метод сжатия                             : С потерями
Размер потока                            : 100 Мбайт (6%)
Заголовок                                : HDrezka Studio
Язык                                     : Russian
Service kind                             : Complete Main
Default                                  : Да
Forced                                   : Нет

Аудио #2
Идентификатор                            : 3
Формат                                   : E-AC-3 JOC
Формат/Информация                        : Enhanced AC-3 with Joint Object Coding
Коммерческое название                    : Dolby Digital Plus with Dolby Atmos
Идентификатор кодека                     : A_EAC3
Продолжительность                        : 31 м. 12 с.
Вид битрейта                             : Постоянный
Битрейт                                  : 768 Кбит/сек
Каналы                                   : 6 каналов
Channel layout                           : L R C LFE Ls Rs
Частота                                  : 48,0 КГц
Частота кадров                           : 31,250 кадров/сек (1536 SPF)
Метод сжатия                             : С потерями
Размер потока                            : 171 Мбайт (10%)
Язык                                     : English
Service kind                             : Complete Main
Default                                  : Нет
Forced                                   : Нет
Complexity index                         : 16
Number of dynamic objects                : 15
Bed channel count                        : 1 канал
Bed channel configuration                : LFE

Текст #1
Идентификатор                            : 4
Формат                                   : UTF-8
Идентификатор кодека                     : S_TEXT/UTF8
Идентификатор кодека/Информация          : UTF-8 Plain Text
Продолжительность                        : 28 м. 0 с.
Битрейт                                  : 1 бит/сек
Count of elements                        : 12
Размер потока                            : 395 байт (0%)
Заголовок                                : Forced
Язык                                     : Russian
Default                                  : Да
Forced                                   : Нет

Текст #2
Идентификатор                            : 5
Формат                                   : UTF-8
Идентификатор кодека                     : S_TEXT/UTF8
Идентификатор кодека/Информация          : UTF-8 Plain Text
Продолжительность                        : 28 м. 24 с.
Битрейт                                  : 100 бит/сек
Count of elements                        : 323
Размер потока                            : 20,9 Кбайт (0%)
Заголовок                                : Где тексты, Лебовски?
Язык                                     : Russian
Default                                  : Нет
Forced                                   : Нет

Текст #3
Идентификатор                            : 6
Формат                                   : UTF-8
Идентификатор кодека                     : S_TEXT/UTF8
Идентификатор кодека/Информация          : UTF-8 Plain Text
Продолжительность                        : 29 м. 6 с.
Битрейт                                  : 101 бит/сек
Count of elements                        : 325
Размер потока                            : 21,5 Кбайт (0%)
Заголовок                                : FOCS
Язык                                     : Russian
Default                                  : Нет
Forced                                   : Нет

Текст #4
Идентификатор                            : 7
Формат                                   : UTF-8
Идентификатор кодека                     : S_TEXT/UTF8
Идентификатор кодека/Информация          : UTF-8 Plain Text
Продолжительность                        : 28 м. 24 с.
Битрейт                                  : 63 бит/сек
Count of elements                        : 379
Размер потока                            : 13,1 Кбайт (0%)
Заголовок                                : SDH
Язык                                     : English
Default                                  : Нет
Forced                                   : Нет

Текст #5
Идентификатор                            : 8
Формат                                   : UTF-8
Идентификатор кодека                     : S_TEXT/UTF8
Идентификатор кодека/Информация          : UTF-8 Plain Text
Продолжительность                        : 30 м. 32 с.
Битрейт                                  : 53 бит/сек
Count of elements                        : 267
Размер потока                            : 11,9 Кбайт (0%)
Язык                                     : Danish
Default                                  : Нет
Forced                                   : Нет

Текст #6
Идентификатор                            : 9
Формат                                   : UTF-8
Идентификатор кодека                     : S_TEXT/UTF8
Идентификатор кодека/Информация          : UTF-8 Plain Text
Продолжительность                        : 30 м. 29 с.
Битрейт                                  : 53 бит/сек
Count of elements                        : 355
Размер потока                            : 12,0 Кбайт (0%)
Язык                                     : German
Default                                  : Нет
Forced                                   : Нет

Текст #7
Идентификатор                            : 10
Формат                                   : UTF-8
Идентификатор кодека                     : S_TEXT/UTF8
Идентификатор кодека/Информация          : UTF-8 Plain Text
Продолжительность                        : 30 м. 32 с.
Битрейт                                  : 55 бит/сек
Count of elements                        : 321
Размер потока                            : 12,4 Кбайт (0%)
Заголовок                                : European
Язык                                     : Spanish
Default                                  : Нет
Forced                                   : Нет

Текст #8
Идентификатор                            : 11
Формат                                   : UTF-8
Идентификатор кодека                     : S_TEXT/UTF8
Идентификатор кодека/Информация          : UTF-8 Plain Text
Продолжительность                        : 30 м. 32 с.
Битрейт                                  : 54 бит/сек
Count of elements                        : 322
Размер потока                            : 12,1 Кбайт (0%)
Язык                                     : Spanish
Default                                  : Нет
Forced                                   : Нет

Текст #9
Идентификатор                            : 12
Формат                                   : UTF-8
Идентификатор кодека                     : S_TEXT/UTF8
Идентификатор кодека/Информация          : UTF-8 Plain Text
Продолжительность                        : 30 м. 32 с.
Битрейт                                  : 51 бит/сек
Count of elements                        : 321
Размер потока                            : 11,6 Кбайт (0%)
Язык                                     : Finnish
Default                                  : Нет
Forced                                   : Нет

Текст #10
Идентификатор                            : 13
Формат                                   : UTF-8
Идентификатор кодека                     : S_TEXT/UTF8
Идентификатор кодека/Информация          : UTF-8 Plain Text
Продолжительность                        : 29 м. 4 с.
Битрейт                                  : 52 бит/сек
Count of elements                        : 349
Размер потока                            : 11,3 Кбайт (0%)
Заголовок                                : Canadian
Язык                                     : French
Default                                  : Нет
Forced                                   : Нет

Текст #11
Идентификатор                            : 14
Формат                                   : UTF-8
Идентификатор кодека                     : S_TEXT/UTF8
Идентификатор кодека/Информация          : UTF-8 Plain Text
Продолжительность                        : 30 м. 29 с.
Битрейт                                  : 50 бит/сек
Count of elements                        : 350
Размер потока                            : 11,3 Кбайт (0%)
Язык                                     : French
Default                                  : Нет
Forced                                   : Нет

Текст #12
Идентификатор                            : 15
Формат                                   : UTF-8
Идентификатор кодека                     : S_TEXT/UTF8
Идентификатор кодека/Информация          : UTF-8 Plain Text
Продолжительность                        : 30 м. 29 с.
Битрейт                                  : 52 бит/сек
Count of elements                        : 320
Размер потока                            : 11,7 Кбайт (0%)
Язык                                     : Italian
Default                                  : Нет
Forced                                   : Нет

Текст #13
Идентификатор                            : 16
Формат                                   : UTF-8
Идентификатор кодека                     : S_TEXT/UTF8
Идентификатор кодека/Информация          : UTF-8 Plain Text
Продолжительность                        : 30 м. 32 с.
Битрейт                                  : 51 бит/сек
Count of elements                        : 321
Размер потока                            : 11,6 Кбайт (0%)
Язык                                     : Norwegian Bokmal
Default                                  : Нет
Forced                                   : Нет

Текст #14
Идентификатор                            : 17
Формат                                   : UTF-8
Идентификатор кодека                     : S_TEXT/UTF8
Идентификатор кодека/Информация          : UTF-8 Plain Text
Продолжительность                        : 30 м. 29 с.
Битрейт                                  : 52 бит/сек
Count of elements                        : 291
Размер потока                            : 11,6 Кбайт (0%)
Язык                                     : Dutch
Default                                  : Нет
Forced                                   : Нет

Текст #15
Идентификатор                            : 18
Формат                                   : UTF-8
Идентификатор кодека                     : S_TEXT/UTF8
Идентификатор кодека/Информация          : UTF-8 Plain Text
Продолжительность                        : 30 м. 32 с.
Битрейт                                  : 54 бит/сек
Count of elements                        : 322
Размер потока                            : 12,2 Кбайт (0%)
Язык                                     : Polish
Default                                  : Нет
Forced                                   : Нет

Текст #16
Идентификатор                            : 19
Формат                                   : UTF-8
Идентификатор кодека                     : S_TEXT/UTF8
Идентификатор кодека/Информация          : UTF-8 Plain Text
Продолжительность                        : 30 м. 32 с.
Битрейт                                  : 56 бит/сек
Count of elements                        : 321
Размер потока                            : 12,7 Кбайт (0%)
Заголовок                                : Brazilian
Язык                                     : Portuguese
Default                                  : Нет
Forced                                   : Нет

Текст #17
Идентификатор                            : 20
Формат                                   : UTF-8
Идентификатор кодека                     : S_TEXT/UTF8
Идентификатор кодека/Информация          : UTF-8 Plain Text
Продолжительность                        : 30 м. 32 с.
Битрейт                                  : 55 бит/сек
Count of elements                        : 322
Размер потока                            : 12,5 Кбайт (0%)
Язык                                     : Portuguese
Default                                  : Нет
Forced                                   : Нет

Текст #18
Идентификатор                            : 21
Формат                                   : UTF-8
Идентификатор кодека                     : S_TEXT/UTF8
Идентификатор кодека/Информация          : UTF-8 Plain Text
Продолжительность                        : 30 м. 32 с.
Битрейт                                  : 46 бит/сек
Count of elements                        : 321
Размер потока                            : 10,3 Кбайт (0%)
Язык                                     : Swedish
Default                                  : Нет
Forced                                   : Нет

Меню
00:29:58.000                             : Credits



[+] Осторожно - спойлер!
Звёздный лорд - Т’Чалла, почему? Почему опустошители искав сына Эго, просто забили на дальнейшие поиски? Не понятно... Ладно, не критично.
Опустошители "утипусечные" добрячки - хрен сним, стерпим...Но чмошный Танос - это уже перебор!  



[+] Не выбирай один мир. Попробуй все
Когда в финале сериала «Локи» поклонники вселенной Marvel выяснили, что предыдущие разборки Мстителей с Таносом были лишь разминкой, а главное масштабное событие (война в мультивселенной) может ждать впереди, они начали строить разные теории. Самые проницательные, конечно, сразу догадались, что введение альтернативных временных линий полностью развязывает руки авторам КВМ. Только представьте — можно собрать команду Мстителей-злодеев, поменять героев суперсилами, наделить их другим происхождением, столкнуть лбами, вернуть выбывших актеров и воскресить погибших персонажей, а все не вписывающееся в канон арки окрестить лишь одним из вариантов событий в одном из миллиарда миров. Впрочем, с таким подходом само понятие канона рушится — все теперь становится оным, ведь это в нашей с вами старой доброй вселенной Marvel Стив Роджерс получил сыворотку суперсолдата, а Тор поднял молот. В других же символом Америки является Пегги Картер, Т`Чалла летит в космос, а Доктор Стрэндж является чуть ли не главным злодеем…

Все это стало возможным благодаря «Локи», но именно в новом проекте — анимационном сериале «Что если?..», нам впервые покажут альтернативные сюжеты первых фаз вселенной Marvel во всей красе. Шоу опирается на одноименные комиксы Роя Томаса, выходившие в 70-х. Студия дала ему такой карт-бланш, что у него Человек-паук состоял в рядах Фантастической четверки, Кэп совершал свои геройства в период Гражданской войны, а Сорвиголова — в феодальной Японии, силами Тора обладала Джейн Фостер и называла себя Тордис. Были даже совершенно нелепые экспериментальные новеллы вроде «Что если Фантастическая четверка состояла бы из бананов?». Как бы то ни было, уже тогда Томас отказывался считать свои графические романы буйством фантазии и настаивал на том, что все эти сюжеты — альтернативные, но такие же правомерные, как и основные.

Читателям серия очень зашла. Главным образом потому, что всем интересно увидеть привычных персонажей в новом свете, посмотреть, как изменились бы их решения под гнетом новых обстоятельств, и оценить другие альянсы. К тому же часто герои в «Что если?..» становились злодеями, сайдкики выходили на передний план и получали чуточку больше признания, а некоторые из них даже избегали смерти. Аналогичный подход решил применить и крестный отец КВМ Кевин Файги. Однако почти сразу продюсерами проекта было решено не экранизировать комиксы 70-х, а сделать сериал отображением, как в кривом зеркале, показанных в кино событий. В «Что если?..» каждый увиденный нами сюжет стартует со знакомой точки, а потом одно маленькое решение полностью меняет ход целой арки.

Помимо того, что сериал поможет зрителям привыкнуть к идее мультивселенной с ее многообразием возможностей, эта любопытная концепция еще и позволит нам лучше понять любимых Мстителей. И если вам кажется, что вы и без того знаете Тони Старка и Стива Роджерса как облупленных, вы глубоко заблуждаетесь. «Мы поняли: наш проект — лучшая возможность очистить героев ото всей шелухи, забрать у Стива щит, а у Т`Чаллы — трон Ваканды, пересобрать их заново и понять, что же делает их теми людьми, которые полюбились миллионам фанатов», — говорит режиссер «Что если?..» Брайан Эндрюс.

Кроме того, «Что если?..» предоставляет актерам, вернувшимся к озвучанию своих ролей, сыграть героев немного по-другому и не отходить при этом от канона. Например, Чедвик Боузман первым подписался на участие, потому что был в восторге от того, что его вечно серьезный и справедливый Т`Чалла стал больше шутить и дурачиться и приобрел более светлые нотки, как только сложил с плеч миссию Черной Пантеры. Многие критики и зрители уже отметили, что в этой последней роли Чедвика в КВМ он выложился на полную, сыграв и не Пантеру, и не Звездного Лорда, а какого-то третьего, совершенно нового, но живого и обаятельного персонажа. «Что если?..» бросил вызов и автору А.С. Бредли («Стрела»), ведь было бы глупо пересказывать известную историю с другими интонациями. Поэтому, например, в первой серии много остроумных отсылок к основному таймлайну — несостоявшееся свидание Стива и Пегги, спасение Баки, шутки по поводу оторванной руки и Капитан Америка в броне от Говарда Старка. Звучит как лучший на свете фансервис.

Отдельного упоминания заслуживает выбранный стиль графики и анимации, чуть не ставший предметом раздора фанатов Marvel на просторах Сети. Выбранный художниками стиль называется сел-шейдинг и чаще всего применяется в компьютерной графике. Из-за него были обескуражены зрители Disney+, избалованные более детальными и красочными «Бракованной партией» и «Монстрами за работой». И все же именно сел-шейдинг с его четкими контурами, резкими переходами светотени и матовостью больше всего подходит для одушевления комиксов. Именно так смотрятся некоторые моменты, особенно экшен-сцены, в «Что если?..». Авторы как раз добивались подобного эффекта, не желая огорошить аудиторию переносом героев из большого кино на малые экраны, к тому же сразу в анимацию. Эстетика комиксов и двумерная картинка помогли и относительно недорогому и быстрому производственному процессу. Что будет только на руку зрителям, когда они увидят все запланированные девять серий и захотят добавки в виде еще девяти.

Именно столько эпизодов заявлено во втором сезоне «Что если?..», который уже точно состоится, — сериал получил продление еще до премьеры. Неудивительно, ведь эти короткие, созданные, казалось бы, для чистого фана и на первый взгляд не связанные между собой серии значительно продвинут вселенную вперед. Авторы мультсериала уже заявили, что его события являются каноном Marvel, а значит, повлияют на сюжет будущих фильмов, например, триквела «Человека-паука». Внимательно следите за тем, как герои меняются суперсилами, а то и целыми судьбами, и слушайте рассказ пока отстраненного Наблюдателя — если отталкиваться от его комиксового прошлого, он еще вмешается в текущие дела.

В остальном же «Что если?..» — это потенциально самый веселый, дерзкий и балующий сюрпризами сериал Четвертой фазы. Что планировщики контента Marvel умеют делать хорошо, так это расставлять акценты — давать публике передышку перед грядущим масштабным эпиком. Впереди у нас, судя по всему, глобальная война таймлайнов и вариантов Канга за главенство, так что сейчас — самое время расслабиться и просто получать удовольствие от творящегося на экране безумия.

lostfilm



[+] Анимация - лучший друг супергероя
Marvel готовит новые анимационные сериалы

Новое шоу Marvel «Что если?..» ознаменовало собой важную веху в КВМ: как и следует из названия, мультсериал выжмет максимум из концепции мультивселенной, которая получила свое официальное подтверждение в финале «Локи». Кроме того, «Что если?..» — это первый и, как стало известно, далеко не последний оригинальный анимационный проект киновселенной.

Брэд Виндербаум («Студия Marvel: Общий сбор», «Черная вдова») заявил, что у студии на этот счет большие планы. По словам продюсера, руководители Marvel решили сосредоточиться именно на многосерийных историях и запустили в разработку многочисленные анимационные сериалы для Disney+, которые находятся на разных этапах производства. Дальше всего продвинулся процесс создания второго сезона «Что если?..», хотя первая глава шоу только на днях была добавлена в библиотеку стримингового сервиса. Вовсю кипит работа и над короткометражными эпизодами о малыше Груте, визуальная часть которых будет создана с использованием фотореалистичных CG-технологий. Кажется, у маленького зеленого компаньона Мандалорца может появиться серьезный конкурент…

На протяжении десятилетий герои комиксов Marvel оживали на экранах в анимационном формате, однако с конца нулевых авторы КВМ сосредоточились на создании игровых фильмов. Почему боссы студии решились вновь зайти на территорию анимации, понять нетрудно. Этот формат предоставляет огромную творческую свободу, без которой не обойтись при работе над такими амбициозными проектами, как мультсериал «Что если?..», который продемонстрирует альтернативные версии знакомых событий из киновселенной. «Без анимации мы были бы просто не в состоянии рассказать подобные истории», — объяснил Виндербаум.

Публика вряд ли увидит новые анимационные сериалы Marvel раньше 2023 года: такое длительное ожидание обусловлено сложностью процесса производства. Однако Виндербаум уверил фанатов в том, что оригинальные сюжеты предстоящих шоу будут основаны как на историях из комиксов, ранее не рассказанных на экранах, так и на персонажах, которые уже знакомы зрителям по игровым проектам. Можно предположить, что имеются в виду не только полнометражные блокбастеры, но и сериалы, которые в последнее время завоевывают все больше места в одной из самых популярных франшиз современности.

Виндербаум добавил: «Наши амбиции в сфере анимации будут реализованы исключительно под крылом студии Marvel: спродюсированы Кевином Файги и созданы теми же людьми, что ежегодно радуют вас новинками из КВМ. Кроме того, все они будут связаны, но как
[+] Всего файлов в раздаче - 5:
What.If.S01E01.mkv1.64 GB
What.If.S01E02.mkv1.66 GB
What.If.S01E03.mkv1.42 GB
What.If.S01E04.mkv1.66 GB
What.If.S01E05.mkv1.57 GB

Показать еще раздачи по запросу если:
2021-09-19 U Что, если...? / What If...? [01x01-06 из 09] (2021) WEB-DLRip | LostFilm 2.42 GB ↑ 15 ↓ 21
2021-09-18 U Что, если...? / What If...? [01x01-06 из 09] (2021) WEB-DL 1080p | LostFilm 9.44 GB ↑ 32 ↓ 70
2021-09-16 U Что, если...? / What If...? [01x01-06 из 09] (2021) WEB-DL 1080p | HDrezka Studio 9.52 GB ↑ 31 ↓ 135
2021-09-16 U Что, если...? / What If...? [01x01-06 из 09] (2021) WEBRip от Kerob | L 2.35 GB ↑ 43 ↓ 54
2021-09-16 U Что, если...? / What If...? [01x01-06 из 09] (2021) WEBRip 1080p от Kerob | L 8.25 GB ↑ 45 ↓ 92
2021-09-16 U Что, если...? / What If...? [01x01-06 из 09] (2021) WEBRip 720p от Kerob | L 4.92 GB ↑ 42 ↓ 85
2021-09-16 U Что, если...? / What If...? [01х01-06 из 09] (2021) WEBRip 1080p | VHSник 9.42 GB ↑ 25 ↓ 19

Отзывы
Зарегистрируйтесь чтобы добавить комментарий.
Загрузите программу
  byTorrent
Обратная связь
Copyleft ©