↑↓Torrent.by
Поиск
Логин: Регистрация
Пароль: Восстановить пароль
Загрузка...

Спасти Ленинград (2019) BDRip 720p | Лицензия

Скачать spasti-leningrad-2019-bdrip-720p-licenziya.torrent
U Магнитная ссылка Размер: 4.20 GB Раздают: 45 Качают: 11 Добавлен: 2019-07-03 07:10:18
Спасти Ленинград (2019) BDRip 720p | Лицензия

Спасти Ленинград

Страна: Россия
Производство: АВК продакшн
Год выпуска: 2019
Жанр:  драма, военный
Продолжительность: 01:37:14

Режиссер: Алексей Козлов
В ролях: Мария Мельникова, А. Миронов-Удалов, Гела Месхи, Анастасия Мельникова, Валерий Дегтярь, Марина Комарова, В. Кищенко, Алексей Шевченков

Описание: Сентябрь 1941 года. Юные влюблённые Костя и Настя волею обстоятельств оказываются на барже, которая должна вывезти людей из блокадного Ленинграда. Ночью судно попадает в шторм и терпит бедствие, на месте трагедии первыми оказываются вовсе не спасатели, а вражеские самолёты...

Перевод: не требуется (оригинал) | Лицензия
Субтитры: нет

Качество: BDRip 720p
Формат: MKV
Видео кодек: AVC
Аудио кодек: АС3
Видео: 1280x536 (2.40:1), 24.000 fps, MPEG-4 AVC ~5 550 kbps avg
Аудио: 48.0 kHz, AC3 Dolby Digital, 3/2 (L,C,R,l,r) + LFE ch, ~640 kbps

Дата премьеры (мир): 7 февраля 2019


[+] Media Info
General
Format : Matroska
Format version : Version 4 / Version 2
File size : 4.20 GiB
Duration : 1h 37mn
Overall bit rate : 6 188 Kbps
Encoded date : UTC 2019-07-01 22:26:32
Writing application : mkvmerge v35.0.0 ('All The Love In The World') 64-bit
Writing library : libebml v1.3.9 + libmatroska v1.5.2

Video
ID : 1
Format : AVC
Format/Info : Advanced Video Codec
Format profile : High@L4.1
Format settings, CABAC : Yes
Format settings, ReFrames : 12 frames
Codec ID : V_MPEG4/ISO/AVC
Duration : 1h 37mn
Bit rate : 5 550 Kbps
Width : 1 280 pixels
Height : 536 pixels
Display aspect ratio : 2.40:1
Frame rate mode : Constant
Frame rate : 24.000 fps
Color space : YUV
Chroma subsampling : 4:2:0
Bit depth : 8 bits
Scan type : Progressive
Bits/(Pixel*Frame) : 0.337
Stream size : 3.77 GiB (90%)
Writing library : x264 core 152 r2851kMod ba24899
Encoding settings : cabac=1 / ref=12 / deblock=1:-3:-3 / analyse=0x3:0x133 / me=umh / subme=11 / psy=1 / fade_compensate=0.00 / psy_rd=1.00:0.00 / mixed_ref=1 / me_range=32 / chroma_me=1 / trellis=2 / 8x8dct=1 / cqm=0 / deadzone=21,11 / fast_pskip=0 / chroma_qp_offset=-2 / threads=17 / lookahead_threads=4 / sliced_threads=0 / nr=0 / decimate=0 / interlaced=0 / bluray_compat=0 / constrained_intra=0 / bframes=10 / b_pyramid=2 / b_adapt=2 / b_bias=0 / direct=3 / weightb=1 / open_gop=0 / weightp=2 / keyint=240 / keyint_min=23 / scenecut=40 / intra_refresh=0 / rc_lookahead=60 / rc=2pass / mbtree=0 / bitrate=5550 / ratetol=1.0 / qcomp=0.60 / qpmin=0 / qpmax=69 / qpstep=4 / cplxblur=20.0 / qblur=0.5 / vbv_maxrate=50000 / vbv_bufsize=62500 / nal_hrd=none / filler=0 / ip_ratio=1.40 / pb_ratio=1.30 / aq=3:1.00
Default : Yes
Forced : No

Audio
ID : 2
Format : AC-3
Format/Info : Audio Coding 3
Mode extension : CM (complete main)
Format settings, Endianness : Big
Codec ID : A_AC3
Duration : 1h 37mn
Bit rate mode : Constant
Bit rate : 640 Kbps
Channel(s) : 6 channels
Channel positions : Front: L C R, Side: L R, LFE
Sampling rate : 48.0 KHz
Frame rate : 31.250 fps (1536 spf)
Compression mode : Lossy
Stream size : 445 MiB (10%)
Title : Lic
Language : Russian
Default : Yes
Forced : No

Menu
00: 00:00.000: en:Chapter 1
00: 03:01.750: en:Chapter 2
00: 09:04.625: en:Chapter 3
00: 15:37.333: en:Chapter 4
00: 22:33.750: en:Chapter 5
00: 30:36.625: en:Chapter 6
00: 34:29.833: en:Chapter 7
00: 38:24.541: en:Chapter 8
00: 43:42.250: en:Chapter 9
00: 48:45.916: en:Chapter 10
00: 53:19.875: en:Chapter 11
00: 58:40.916: en:Chapter 12
01: 07:26.041: en:Chapter 13
01: 13:26.750: en:Chapter 14
01: 18:02.541: en:Chapter 15
01: 22:38.416: en:Chapter 16
01: 26:42.583: en:Chapter 17
01: 30:54.708: en:Chapter 18



Скриншоты:
[+] Всего файлов в раздаче - 1:
Спасти Ленинград (2019) BDRip 720p.mkv4.20 GB

Показать еще раздачи по запросу спасти:
2019-07-04 U Спасти Ленинград (2019) HDRip от Scarabey | Лицензия 1.44 GB ↑ 193 ↓ 9
2019-07-02 U Спасти Ленинград (2019) BDRip 1080p от OlLanDGroup | Лицензия 7.90 GB ↑ 110 ↓ 63
2019-07-02 U Спасти Ленинград (2019) BDRip от MegaPeer | Лицензия 1.46 GB ↑ 119 ↓ 10
2019-03-31 U Спасти Ленинград (2019) HDTVRip-AVC 1.34 GB ↑ 13 ↓ 8
2019-03-05 U Спасти Ленинград (2019) WEB-DLRip от Scarabey | iTunes 1.44 GB ↑ 278 ↓ 72
2019-03-04 U Спасти Ленинград (2019) WEB-DLRip от Generalfilm | КПК | iTunes 369.80 MB ↑ 102 ↓ 36
2019-03-04 U Спасти Ленинград (2019) WEB-DLRip-AVC от OlLanDGroup | iTunes 1.46 GB ↑ 320 ↓ 149

Отзывы
Зарегистрируйтесь чтобы добавить комментарий.
Обратная связь
Copyleft ©