↑↓Torrent.by
Поиск
Логин: Регистрация
Пароль: Восстановить пароль
Загрузка...

Аполлон-11 / Apollo 11 (2019) BDRip 1080p | Jaskier

Скачать apollon-11-apollo-2019-bdrip-1080p-jaskier.torrent
U Магнитная ссылка Размер: 13.09 GB Раздают: 46 Качают: 20 Добавлен: 2019-07-04 08:50:33
Аполлон-11 / Apollo 11 (2019) BDRip 1080p | Jaskier

Название: Аполлон-11  
Оригинальное название: Apollo 11
Год выхода: 2019
Жанр: Документальный, история
Режиссер: Тодд Дуглас Миллер
В ролях: Базз Олдрин, Джоан Энн Арчер, Джанет Армстронг, Джек Бенни, Джонни Карсон, Клиффорд Э. Чарльзуорт, Майкл Коллинз, Уолтер Кронкайт, Чарльз Дьюк, Линдон Джонсон

О фильме:
Документальный фильм рассказывает о миссии пилотируемого космического корабля «Аполлон-11», под руководством командира Нила Армстронга, который в 1969 году совершил посадку на Луне. В фильм включены редкие кадры, интервью очевидцев и участников, доказывающие реальность произошедшего, подвергающаяся сомнению многие годы.

Страна: США
Студия: CNN Films, Statement Pictures
Продолжительность: 01:33:00
Перевод:
     • Профессиональный (многоголосый, закадровый) | Jaskier

Файл
Качество: BDRip 1080p
Формат: MKV
Кодек: MPEG-4 AVC
Видео: 1920x874 (2,2:1), 23.976 fps, MPEG-4 AVC ~ 18,0 Мbps avg, 0.447 bit/pixel
Аудио:  AC3, 48 kHz, 6 ch, ~640.00 kbps avg | русский | Jaskier
Аудио:  DTS, 48 kHz, 6 ch, ~1509.00.00 kbps avg | английский | Оригинал

Субтитры: Английские (Full)

***Примечание: Релиз без рекламы


[+] Инфо-файл
Общее
Уникальный идентификатор                 : 186737402462001758569503655826593643842 (0x8C7C50C58447DF75F5E87399552F7D42)
Полное имя                               : Apollo.11.2019.1080p.BluRay.DD5.1.x264.Rus.Eng.mkv
Формат                                   : Matroska
Версия формата                           : Version 4 / Version 2
Размер файла                             : 13,1 Гбайт
Продолжительность                        : 1 ч. 33 м.
Общий поток                              : 20,1 Мбит/сек
Название фильма                          : Аполлон-11 / Apollo 11 (2019)
Дата кодирования                         : UTC 2019-07-03 16:25:05
Программа кодирования                    : mkvmerge v27.0.0 ('Metropolis') 64-bit
Библиотека кодирования                   : libebml v1.3.6 + libmatroska v1.4.9
Обложка                                  : Yes
Attachments                              : cover.jpg

Видео
Идентификатор                            : 1
Формат                                   : AVC
Формат/Информация                        : Advanced Video Codec
Профиль формата                          : High@L4.1
Настройки формата                        : CABAC / 4 Ref Frames
Параметр CABAC формата                   : Да
Параметр RefFrames формата               : 4 кадра
Идентификатор кодека                     : V_MPEG4/ISO/AVC
Продолжительность                        : 1 ч. 33 м.
Битрейт                                  : 18,0 Мбит/сек
Ширина                                   : 1920 пикселей
Высота                                   : 874 пикселя
Соотношение сторон                       : 2,2:1
Режим частоты кадров                     : Постоянный
Частота кадров                           : 23,976 (24000/1001) кадра/сек
Цветовое пространство                    : YUV
Субдискретизация насыщенности            : 4:2:0
Битовая глубина                          : 8 бит
Тип развёртки                            : Прогрессивная
Бит/(Пиксели*Кадры)                      : 0.447
Размер потока                            : 11,7 Гбайт (89%)
Заголовок                                : MTeam
Библиотека кодирования                   : x264 core 157 r2938 2b00a84 TnP@MTeam Mod
Настройки программы                      : cabac=1 / ref=4 / deblock=1:-3:-3 / analyse=0x3:0x133 / me=umh / subme=10 / psy=1 / psy_rd=1.05:0.00 / mixed_ref=1 / me_range=32 / chroma_me=1 / trellis=2 / 8x8dct=1 / cqm=0 / deadzone=21,11 / fast_pskip=0 / chroma_qp_offset=-2 / threads=12 / lookahead_threads=2 / sliced_threads=0 / nr=0 / decimate=0 / interlaced=0 / bluray_compat=0 / constrained_intra=0 / bframes=8 / b_pyramid=2 / b_adapt=2 / b_bias=0 / direct=3 / weightb=1 / open_gop=0 / weightp=2 / keyint=250 / keyint_min=24 / scenecut=40 / intra_refresh=0 / rc_lookahead=250 / rc=crf / mbtree=0 / crf=16.5 / qcomp=0.60 / qpmin=0 / qpmax=69 / qpstep=4 / vbv_maxrate=62500 / vbv_bufsize=78125 / crf_max=0.0 / nal_hrd=none / filler=0 / ip_ratio=1.30 / pb_ratio=1.20 / aq=3:0.80
Язык                                     : English
Default                                  : Да
Forced                                   : Нет
Цветовой диапазон                        : Limited
Основные цвета                           : BT.709
Коэффициенты матрицы                     : BT.709

Аудио #1
Идентификатор                            : 2
Формат                                   : AC-3
Формат/Информация                        : Audio Coding 3
Идентификатор кодека                     : A_AC3
Продолжительность                        : 1 ч. 33 м.
Вид битрейта                             : Постоянный
Битрейт                                  : 640 Кбит/сек
Каналы                                   : 6 каналов
Расположение каналов                     : Front: L C R, Side: L R, LFE
Частота                                  : 48,0 КГц
Частота кадров                           : 31,250 кадров/сек (1536 SPF)
Битовая глубина                          : 16 бит
Метод сжатия                             : С потерями
Размер потока                            : 426 Мбайт (3%)
Заголовок                                : MVO | Jaskier
Язык                                     : Russian
Default                                  : Да
Forced                                   : Нет

Аудио #2
Идентификатор                            : 3
Формат                                   : DTS
Формат/Информация                        : Digital Theater Systems
Идентификатор кодека                     : A_DTS
Продолжительность                        : 1 ч. 33 м.
Вид битрейта                             : Постоянный
Битрейт                                  : 1509 Кбит/сек
Каналы                                   : 6 каналов
Расположение каналов                     : Front: L C R, Side: L R, LFE
Частота                                  : 48,0 КГц
Частота кадров                           : 93,750 кадра/сек (512 SPF)
Битовая глубина                          : 24 бит
Метод сжатия                             : С потерями
Размер потока                            : 1004 Мбайт (7%)
Заголовок                                : Original
Язык                                     : English
Default                                  : Нет
Forced                                   : Нет

Текст
Идентификатор                            : 4
Формат                                   : UTF-8
Идентификатор кодека                     : S_TEXT/UTF8
Идентификатор кодека/Информация          : UTF-8 Plain Text
Продолжительность                        : 1 ч. 29 м.
Битрейт                                  : 79 бит/сек
ElementCount                             : 1591
Размер потока                            : 52,1 Кбайт (0%)
Заголовок                                : Full
Язык                                     : English
Default                                  : Нет
Forced                                   : Нет

Меню
00:00:00.000                             : en:Chapter 01
00:11:24.058                             : en:Chapter 02
00:24:39.561                             : en:Chapter 03
00:37:58.276                             : en:Chapter 04
00:45:36.651                             : en:Chapter 05
00:53:25.786                             : en:Chapter 06
01:18:24.408                             : en:Chapter 07
01:29:26.444                             : en:Chapter 08



Скриншоты:
[+] Всего файлов в раздаче - 1:
Apollo.11.2019.1080p.BluRay.DD5.1.x264.Rus.Eng.mkv13.09 GB

Похожие раздачи по запросу - аполлон:
2019-07-19 U Аполлон-11 / Apollo 11 (2019) BDRip от MegaPeer | Jaskier 1.46 GB ↑ 35 ↓ 7
2019-06-30 U Аполлон-11 / Apollo 11 (2019) BDRip 720p | Jaskier 6.67 GB ↑ 38 ↓ 38

Отзывы
Зарегистрируйтесь чтобы добавить комментарий.
Обратная связь
Copyleft ©