↑↓Torrent.by
Поиск
Логин: Регистрация
Пароль: Восстановить пароль
Загрузка...

Фурия / Hai Phuong (2019) WEB-DLRip | СВ Студия

Скачать furiya-hai-phuong-2019-web-dlrip-sv-studiya.torrent
U Магнитная ссылка Размер: 1.46 GB Раздают: 239 Качают: 96 Добавлен: 2019-07-04 13:41:06
Фурия / Hai Phuong (2019) WEB-DLRip | СВ Студия

Фурия / Hai Phuong

Страна: Вьетнам
Производство: Studio 68, Netflix
Год выпуска: 2019
Жанр:  боевик, криминал
Продолжительность: 01:37:19

Режиссер: Ле-Ван Киэт
В ролях: Вероника Нго, Дженнифер Аликс, Фам Анх Хоа, Тхань Ньен Фан, Брианна Робертс, Элизабет Суит, Ким Лонг Тач, Хоа Чан

Описание: 10 лет назад бывшая глава преступной группировки залегла на дно в сельской местности, родила девочку и наслаждается простым женским счастьем. Поскольку делать женщина ничего полезного не умеет, то занимается сбором долгов. Дочка Май из-за этого переживает и мечтает, что когда-нибудь они откроют рыбную ферму, и маме больше не нужно будет выполнять эту постыдную работу. Внезапно Май похищает международная организация торговцев людьми, и женщина превращается в смертоносную фурию — она пойдёт до конца, чтобы спасти дочь, а негодяям придется пожалеть о своем поступке...

Перевод: Профессиональный (многоголосый, закадровый) | СВ Студия
Субтитры: нет

Качество: WEB-DLRip
Формат: AVI
Видео кодек: XviD
Аудио кодек: АС3
Видео: 720x304 (2.35:1), 24.000 fps, XviD build 73 ~1 685 kbps avg
Аудио: 48.0 kHz, AC3 Dolby Digital, 3/2 (L,C,R,l,r) + LFE ch, ~448 kbps

Дата премьеры (мир): 14 февраля 2019

Релиз от: порошков


[+] Media Info
General
Формат                                   : AVI
Формат/Информация                        : Audio Video Interleave
Размер файла                             : 1,46 Гбайт
Продолжительность                        : 1 ч. 37 м.
Общий поток                              : 2143 Кбит/сек
Название фильма                          : Фурия_2019_WEB-DLRip
Программа кодирования                    : VirtualDubMod 1.5.10.3 | (build 2550/release)
Авторское право                          : порошков

Видео
Идентификатор                            : 0
Формат                                   : MPEG-4 Visual
Профиль формата                          : Advanced Simple@L5
Настройки формата                        : BVOP1 / Custom Matrix
Параметр BVOP формата                    : 1
Параметр QPel формата                    : Нет
Параметр GMC формата                     : Без точки перехода
Параметр матрицы формата                 : Выборочная
Идентификатор кодека                     : XVID
Идентификатор кодека/Подсказка           : XviD
Продолжительность                        : 1 ч. 37 м.
Битрейт                                  : 1685 Кбит/сек
Ширина                                   : 720 пикселей
Высота                                   : 304 пикселя
Соотношение сторон                       : 2,35:1
Частота кадров                           : 24,000 кадра/сек
Цветовое пространство                    : YUV
Субдискретизация насыщенности            : 4:2:0
Битовая глубина                          : 8 бит
Тип развёртки                            : Прогрессивная
Метод сжатия                             : С потерями
Бит/(Пиксели*Кадры)                      : 0.321
Размер потока                            : 1,15 Гбайт (79%)
Библиотека кодирования                   : XviD 73

Аудио
Идентификатор                            : 1
Формат                                   : AC-3
Формат/Информация                        : Audio Coding 3
Коммерческое название                    : Dolby Digital
Идентификатор кодека                     : 2000
Продолжительность                        : 1 ч. 37 м.
Вид битрейта                             : Постоянный
Битрейт                                  : 448 Кбит/сек
Каналы                                   : 6 каналов
ChannelLayout                            : L R C LFE Ls Rs
Частота                                  : 48,0 КГц
Частота кадров                           : 31,250 кадров/сек (1536 SPF)
Битовая глубина                          : 16 бит
Метод сжатия                             : С потерями
Размер потока                            : 312 Мбайт (21%)
Выравнивание                             : Разделение по промежуткам
Продолжительность промежутка             : 42  мс. (1,00 видеокадр)
Время предзагрузки промежутка            : 500  мс.



Скриншоты:
[+] Всего файлов в раздаче - 1:
Фурия_2019_WEB-DLRip.avi1.46 GB

Показать еще раздачи по запросу фурия:
2019-07-13 U Фурия / Hai Phuong (2019) BDRip 1080p | СВ Студия 1К6.79 GB ↑ 96 ↓ 36
2019-07-12 U Фурия / Hai Phuong (2019) BDRip от MegaPeer | СВ Студия 1.46 GB ↑ 56 ↓ 14
2019-07-08 U Фурия / Hai Phuong / Furie (2019) WEB-DLRip от Scarabey | CВ Студия 1.44 GB ↑ 25 ↓ 5
2019-07-05 U Фурия / Hai Phuong (2019) WEB-DLRip-AVC от OlLanDGroup | P 1.46 GB ↑ 79 ↓ 12
2019-07-05 U Фурия / Hai Phuong (2019) WEB-DL 720p | СВ Студия 3.35 GB ↑ 71 ↓ 26
2019-07-05 U Фурия / Hai Phuong (2019) WEB-DLRip от ExKinoRay | СВ Студия 745.39 MB ↑ 105 ↓ 18
2019-07-04 U Фурия / Hai Phuong (2019) WEB-DL 1080p | СВ Студия 5.27 GB ↑ 74 ↓ 113

Отзывы
julia-17.94@mail.ru
О! Вьетнамцы пробуют пробиться на кинорынок ))

Зарегистрируйтесь чтобы добавить комментарий.
Обратная связь
Copyleft ©