↑↓Torrent.by
Поиск
Логин: Регистрация
Пароль: Восстановить пароль
Загрузка...

Очень странные дела / Stranger Things [S03] (2019) WEB-DL 1080p | Пифагор

Скачать ochen-strannye-dela-stranger-things-s03-2019-web-dl-1080p-pifagor.torrent
U Магнитная ссылка Размер: 21.07 GB Раздают: 1575 Качают: 3158 Добавлен: 2019-07-04 20:19:57
Очень странные дела / Stranger Things [S03] (2019) WEB-DL 1080p | Пифагор

Название: Очень странные дела
Оригинальное название: Stranger Things
Год выхода: 2019
Жанр: Ужасы, фантастика, фэнтези, триллер, драма, детектив
Страна: США
Перевод: Дублированный | Пифагор по заказу Netflix
Продолжительность: 8x ~ 00:50:00 мин
Режиссеры: Мэтт Даффер, Росс Даффер, Шон Леви
В ролях: Вайнона Райдер, Дэвид Харбор, Финн Вулфард, Милли Бобби Браун, Гейтен Матараццо, Калеб Маклафлин, Наталия Дайер, Чарли Хитон, Кара Буоно, Джо Кири и др.

О фильме: 1980-е годы, тихий провинциальный американский городок. Благоприятное течение местной жизни нарушает загадочное исчезновение подростка по имени Уилл. Выяснить обстоятельства дела полны решимости родные мальчика и местный шериф. Также события затрагивают лучшего друга Уилла — Майка. Он начинает собственное расследование. Майк уверен, что близок к разгадке, и теперь ему предстоит оказаться в эпицентре ожесточенной битвы потусторонних сил.

Файл
Качество: WEB-DL 1080p
Видео: MPEG-4 AVC, 1920x1080, 5836 kbps, 23,976 fps
Звук#1: русский, E-AC3, 5.1 ch, 48 kHz, 640 kbps
Звук#2: английский, E-AC3, 5.1 ch, 48 kHz, 640 kbps  
Субтитры: русские (форс., полные), английские (SDH)

Релиз:


[+] MI
Общее
Уникальный идентификатор                 : 178455925720383687556456353943082162817 (0x86415C71B18095D0B625C1CDE8D2DA81)
Полное имя                               : E:Torrent2StrangerThingsS03StrangerThingsS03x01.mkv
Формат                                   : Matroska
Версия формата                           : Version 4 / Version 2
Размер файла                             : 2,51 Гбайт
Продолжительность                        : 50 м. 32 с.
Общий поток                              : 7118 Кбит/сек
Дата кодирования                         : UTC 2019-07-04 10:18:53
Программа кодирования                    : mkvmerge v9.5.0 ('Quiet Fire') 64bit
Библиотека кодирования                   : libebml v1.3.4 + libmatroska v1.4.5

Видео
Идентификатор                            : 1
Формат                                   : AVC
Формат/Информация                        : Advanced Video Codec
Профиль формата                          : High@L4
Настройки формата                        : CABAC / 3 Ref Frames
Параметр CABAC формата                   : Да
Параметр RefFrames формата               : 3 кадра
Идентификатор кодека                     : V_MPEG4/ISO/AVC
Продолжительность                        : 50 м. 32 с.
Битрейт                                  : 5836 Кбит/сек
Ширина                                   : 1920 пикселей
Высота                                   : 1080 пикселей
Соотношение сторон                       : 16:9
Режим частоты кадров                     : Постоянный
Частота кадров                           : 23,976 (24000/1001) кадра/сек
Цветовое пространство                    : YUV
Субдискретизация насыщенности            : 4:2:0
Битовая глубина                          : 8 бит
Тип развёртки                            : Прогрессивная
Бит/(Пиксели*Кадры)                      : 0.117
Размер потока                            : 2,06 Гбайт (82%)
Язык                                     : English
Default                                  : Да
Forced                                   : Нет

Аудио #1
Идентификатор                            : 2
Формат                                   : E-AC-3
Формат/Информация                        : Enhanced Audio Coding 3
Параметр Endianness формата              : Big
Идентификатор кодека                     : A_EAC3
Продолжительность                        : 50 м. 32 с.
Вид битрейта                             : Постоянный
Битрейт                                  : 640 Кбит/сек
Каналы                                   : 6 каналов
Расположение каналов                     : Front: L C R, Side: L R, LFE
Частота                                  : 48,0 КГц
Частота кадров                           : 187,500 кадров/сек (256 SPF)
Метод сжатия                             : С потерями
Размер потока                            : 231 Мбайт (9%)
Заголовок                                : rus
Язык                                     : Russian
Default                                  : Да
Forced                                   : Нет

Аудио #2
Идентификатор                            : 3
Формат                                   : E-AC-3
Формат/Информация                        : Enhanced Audio Coding 3
Параметр Endianness формата              : Big
Идентификатор кодека                     : A_EAC3
Продолжительность                        : 50 м. 32 с.
Вид битрейта                             : Постоянный
Битрейт                                  : 640 Кбит/сек
Каналы                                   : 6 каналов
Расположение каналов                     : Front: L C R, Side: L R, LFE
Частота                                  : 48,0 КГц
Частота кадров                           : 187,500 кадров/сек (256 SPF)
Метод сжатия                             : С потерями
Размер потока                            : 231 Мбайт (9%)
Заголовок                                : eng
Язык                                     : English
Default                                  : Нет
Forced                                   : Нет

Текст #1
Идентификатор                            : 4
Формат                                   : UTF-8
Идентификатор кодека                     : S_TEXT/UTF8
Идентификатор кодека/Информация          : UTF-8 Plain Text
Продолжительность                        : 36 м. 52 с.
Битрейт                                  : 2 бит/сек
ElementCount                             : 15
Размер потока                            : 673 байт (0%)
Заголовок                                : rusForced
Язык                                     : Russian
Default                                  : Да
Forced                                   : Да

Текст #2
Идентификатор                            : 5
Формат                                   : UTF-8
Идентификатор кодека                     : S_TEXT/UTF8
Идентификатор кодека/Информация          : UTF-8 Plain Text
Продолжительность                        : 48 м. 40 с.
Битрейт                                  : 60 бит/сек
ElementCount                             : 496
Размер потока                            : 21,7 Кбайт (0%)
Заголовок                                : rusFull
Язык                                     : Russian
Default                                  : Нет
Forced                                   : Нет

Текст #3
Идентификатор                            : 6
Формат                                   : UTF-8
Идентификатор кодека                     : S_TEXT/UTF8
Идентификатор кодека/Информация          : UTF-8 Plain Text
Продолжительность                        : 48 м. 53 с.
Битрейт                                  : 59 бит/сек
ElementCount                             : 778
Размер потока                            : 21,2 Кбайт (0%)
Заголовок                                : engSDH
Язык                                     : English
Default                                  : Нет
Forced                                   : Нет




Скриншоты:
[+] Всего файлов в раздаче - 8:
StrangerThingsS03x05.mkv2.44 GB
StrangerThingsS03x01.mkv2.51 GB
StrangerThingsS03x03.mkv2.09 GB
StrangerThingsS03x06.mkv3.24 GB
StrangerThingsS03x07.mkv2.59 GB
StrangerThingsS03x08.mkv3.74 GB
StrangerThingsS03x02.mkv2.20 GB
StrangerThingsS03x04.mkv2.26 GB

Показать еще раздачи по запросу очень:
2019-07-09 U Очень странные дела / Stranger Things [S03] (2019) WEB-DLRip-AVC | Пифагор 5.70 GB ↑ 49 ↓ 50
2019-07-08 U Очень странные дела / Stranger Things [S03] (2019) WEBRip от Scarabey | Пифагор 5.93 GB ↑ 41 ↓ 42
2019-07-07 U Очень странные дела / Stranger Things [03x01 из 08] (2019) WEB-DL 720p | LostFilm 1.69 GB ↑ 57 ↓ 32
2019-07-07 U Очень странные дела / Stranger Things [S03] (2019) WEBRip | Gears Media 4.94 GB ↑ 88 ↓ 56
2019-07-07 U Очень странные дела / Stranger Things [S03] (2019) WEB-DL-HEVC 2160p | 4K | Пифагор 51.85 GB ↑ 39 ↓ 46
2019-07-07 U Очень странные дела / Stranger Things [S03] (2019) WEBRip 1080p | Пифагор 44.00 GB ↑ 74 ↓ 94
2019-07-06 U Очень странные дела / Stranger Things [S03] (2019) WEBRip 720p | IdeaFilm 15.97 GB ↑ 52 ↓ 88

Отзывы
Зарегистрируйтесь чтобы добавить комментарий.
Обратная связь
Copyleft ©