↑↓Torrent.by
Поиск
Логин: Регистрация
Пароль: Восстановить пароль
Загрузка...

Хеллбой / Hellboy (2019) WEBRip-AVC | СВ Студия

Скачать hellboy-2019-webrip-avc-sv-studiya.torrent
U Магнитная ссылка Размер: 2.05 GB Раздают: 237 Качают: 113 Добавлен: 2019-07-05 13:39:39
Хеллбой / Hellboy (2019) WEBRip-AVC | СВ Студия

Название: Хеллбой
Оригинальное название: Hellboy
Год выхода: 2019
Жанр: Фэнтези, Боевик, Приключения

Режиссер: Нил Маршалл

В ролях: Дэвид Харбор, Милла Йовович, Иэн Макшейн, Саша Лейн, Дэниел Дэ Ким, Томас Хейден Чёрч, Пенелопа Митчелл, Софи Оконедо, Брин Глисон, Алистер Петри, Лайла Морс, Стивен Грэм

О фильме:
Близится час битвы Хеллбоя с Кровавой королевой, жаждущей отомстить всему человечеству за века в заточении. Оказавшись в эпицентре столкновения миров людей и монстров, Хеллбою придется пройти через ад, чтобы предотвратить надвигающийся апокалипсис.

Страна: США
Продолжительность: 02:00:40
Перевод: Профессиональный (многоголосый, закадровый) [СВ Студия]

Файл
Кодек: x.264
Качество: WEBRip-AVC
Видео: AVC, 1024x428 (2.40:1), 23.976 fps, 2 050 kb/s
Аудио 1: AC-3, 48.0 kHz, 2 ch, 192 kb/s | RUS
Аудио 2: AC-3, 48.0 kHz, 2 ch, 192 kb/s | ENG
Субтитры: корейские (hardsub), английские (full, colored)


[+] MI
General
Unique ID                                : 199794222944554579517834408097224746052 (0x964EF7B91E98D56EB8CD1783539E6444)
Complete name                            : Hellboy.2019.AVC.WEBRip.mkv
Format                                   : Matroska
Format version                           : Version 4
File size                                : 2.05 GiB
Duration                                 : 2 h 0 min
Overall bit rate                         : 2 436 kb/s
Encoded date                             : UTC 2019-07-05 09:22:14
Writing application                      : mkvmerge v8.3.0 ('Over the Horizon') 64bit
Writing library                          : libebml v1.3.1 + libmatroska v1.4.2

Video
ID                                       : 1
Format                                   : AVC
Format/Info                              : Advanced Video Codec
Format profile                           : High@L4.1
Format settings                          : CABAC / 10 Ref Frames
Format settings, CABAC                   : Yes
Format settings, ReFrames                : 10 frames
Codec ID                                 : V_MPEG4/ISO/AVC
Duration                                 : 2 h 0 min
Bit rate                                 : 2 050 kb/s
Nominal bit rate                         : 2 200 kb/s
Width                                    : 1 024 pixels
Height                                   : 428 pixels
Display aspect ratio                     : 2.40:1
Frame rate mode                          : Constant
Frame rate                               : 23.976 (24000/1001) FPS
Color space                              : YUV
Chroma subsampling                       : 4:2:0
Bit depth                                : 8 bits
Scan type                                : Progressive
Bits/(Pixel*Frame)                       : 0.195
Stream size                              : 1.73 GiB (84%)
Writing library                          : x264 core 157 r2969 d4099dd
Encoding settings                        : cabac=1 / ref=10 / deblock=1:-3:-3 / analyse=0x3:0x133 / me=umh / subme=9 / psy=1 / psy_rd=0.98:0.04 / mixed_ref=1 / me_range=48 / chroma_me=1 / trellis=1 / 8x8dct=1 / cqm=0 / deadzone=21,11 / fast_pskip=1 / chroma_qp_offset=-3 / threads=5 / lookahead_threads=1 / sliced_threads=0 / nr=0 / decimate=1 / interlaced=0 / bluray_compat=0 / constrained_intra=0 / bframes=3 / b_pyramid=2 / b_adapt=2 / b_bias=0 / direct=3 / weightb=1 / open_gop=0 / weightp=2 / keyint=240 / keyint_min=24 / scenecut=40 / intra_refresh=0 / rc_lookahead=40 / rc=cbr / mbtree=1 / bitrate=2200 / ratetol=1.0 / qcomp=0.60 / qpmin=0 / qpmax=69 / qpstep=4 / vbv_maxrate=2200 / vbv_bufsize=1571 / nal_hrd=none / filler=0 / ip_ratio=1.40 / aq=1:1.00
Language                                 : English
Default                                  : Yes
Forced                                   : No

Audio #1
ID                                       : 2
Format                                   : AC-3
Format/Info                              : Audio Coding 3
Commercial name                          : Dolby Digital
Codec ID                                 : A_AC3
Duration                                 : 2 h 0 min
Bit rate mode                            : Constant
Bit rate                                 : 192 kb/s
Channel(s)                               : 2 channels
Channel layout                           : L R
Sampling rate                            : 48.0 kHz
Frame rate                               : 31.250 FPS (1536 SPF)
Bit depth                                : 16 bits
Compression mode                         : Lossy
Stream size                              : 166 MiB (8%)
Title                                    : СВ Студия
Language                                 : Russian
Default                                  : Yes
Forced                                   : No

Audio #2
ID                                       : 3
Format                                   : AC-3
Format/Info                              : Audio Coding 3
Commercial name                          : Dolby Digital
Codec ID                                 : A_AC3
Duration                                 : 2 h 0 min
Bit rate mode                            : Constant
Bit rate                                 : 192 kb/s
Channel(s)                               : 2 channels
Channel layout                           : L R
Sampling rate                            : 48.0 kHz
Frame rate                               : 31.250 FPS (1536 SPF)
Bit depth                                : 16 bits
Compression mode                         : Lossy
Stream size                              : 166 MiB (8%)
Language                                 : English
Default                                  : No
Forced                                   : No

Text #1
ID                                       : 4
Format                                   : UTF-8
Codec ID                                 : S_TEXT/UTF8
Codec ID/Info                            : UTF-8 Plain Text
Duration                                 : 2 h 0 min
Bit rate                                 : 118 b/s
Count of elements                        : 1943
Stream size                              : 104 KiB (0%)
Title                                    : colored
Language                                 : English
Default                                  : Yes
Forced                                   : No

Text #2
ID                                       : 5
Format                                   : UTF-8
Codec ID                                 : S_TEXT/UTF8
Codec ID/Info                            : UTF-8 Plain Text
Duration                                 : 2 h 0 min
Bit rate                                 : 60 b/s
Count of elements                        : 1943
Stream size                              : 52.9 KiB (0%)
Language                                 : English
Default                                  : No
Forced                                   : No



Скриншоты:
[+] Всего файлов в раздаче - 1:
Hellboy.2019.AVC.WEBRip.mkv2.05 GB

Показать еще раздачи по запросу хеллбой:
2019-07-18 U Хеллбой / Hellboy (2019) HDRip-AVC от ExKinoRay | iTunes, P 2.36 GB ↑ 111 ↓ 54
2019-07-18 U Хеллбой / Hellboy (2019) BDRip 1080p от селезень | D, P | iTunes 11.33 GB ↑ 82 ↓ 36
2019-07-17 U Хеллбой / Hellboy (2019) UHD BDRip 1080p от селезень | D, P | iTunes 2К11.01 GB ↑ 134 ↓ 99
2019-07-17 U Хеллбой / Hellboy (2019) HDRip-AVC от ExKinoRay | iTunes, P 2.36 GB ↑ 448 ↓ 28
2019-07-10 U Хеллбой / Hellboy (2019) WEBRip-HEVC 2160p | 4K | HDR | D, P | iTunes 12.28 GB ↑ 222 ↓ 94
2019-07-09 U Хеллбой / Hellboy (2019) WEB-DLRip-AVC от New-Team | Локализованная версия | D 1.44 GB ↑ 82 ↓ 42
2019-07-09 U Хеллбой / Hellboy (2019) WEB-DLRip-AVC от ExKinoRay | iTunes 2.12 GB ↑ 219 ↓ 140

Отзывы
Зарегистрируйтесь чтобы добавить комментарий.
Обратная связь
Copyleft ©