↑↓Torrent.by
Поиск
Логин: Регистрация
Пароль: Восстановить пароль
Загрузка...

После / After (2019) BDRip 720p от селезень | iTunes

Скачать posle-after-2019-bdrip-720p-ot-selezen-itunes.torrent
U Магнитная ссылка Размер: 4.83 GB Раздают: 40 Качают: 19 Добавлен: 2019-07-05 13:40:45
После / After (2019) BDRip 720p от селезень | iTunes

Название: После
Оригинальное название: After
Год выхода: 2019
Жанр: Драма, мелодрама
Режиссер: Дженни Гейдж
В ролях: Хиро Файнс-Тиффин, Сэлма Блэр, Джозефин Лэнгфорд, Дженнифер Билз, Питер Галлахер, Медоу Уильямс, Сэмюэл Ларсен, Инанна Саркис, Пиа Миа, Дилан Арнольд, Шэйн Пол МакГи

О фильме: Случайная встреча перевернула их привычный мир. Она - прилежная студентка и образцовая дочь, а он - притягательный бунтарь с непростым прошлым. Живя в параллельных вселенных, они бы вряд ли даже взглянули друг на друга. Однако этому знакомству суждено разделить жизнь влюбленных на до и после.

Страна: США
Студия: CalMaple, Wattpad, Diamond Film Productions
Продолжительность: 01:46:04
Перевод: Дублированный | iTunes

Качество: BDRip 720p
Видео: MPEG-4 AVC, 1280x536, 5500 Kbit/s, 23.976 fps
Звук:
Аудио #01: 48 kHz, AC3, 5.1, 384 Kbps | iTunes | RUS |
Аудио #02: 48 kHz, AC3, 5.1, 640 Kbps | Оригинал |  ENG |
Субтитры: Русские (Full), английские

Релиз:


[+] MI
General
Unique ID                   : 259645830899620122854621619118796421989 (0xC355F7D334939D2B5C310B2A2D4BBB65)
Complete name               : D:Video111After.2019.D.BDRip.720p.seleZen.mkv
Format                      : Matroska
Format version              : Version 4
File size                   : 4.83 GiB
Duration                    : 1 h 46 min
Overall bit rate            : 6 522 kb/s
Movie name                  : After 2019 from селезень
Encoded date                : UTC 2019-07-04 14:32:31
Writing application         : mkvmerge v35.0.0 ('All The Love In The World') 64-bit
Writing library             : libebml v1.3.9 + libmatroska v1.5.2

Video
ID                          : 1
Format                      : AVC
Format/Info                 : Advanced Video Codec
Format profile              : High@L4.1
Format settings             : CABAC / 12 Ref Frames
Format settings, CABAC      : Yes
Format settings, Reference  : 12 frames
Codec ID                    : V_MPEG4/ISO/AVC
Duration                    : 1 h 46 min
Bit rate                    : 5 500 kb/s
Width                       : 1 280 pixels
Height                      : 536 pixels
Display aspect ratio        : 2.40:1
Frame rate mode             : Constant
Frame rate                  : 23.976 (24000/1001) FPS
Color space                 : YUV
Chroma subsampling          : 4:2:0
Bit depth                   : 8 bits
Scan type                   : Progressive
Bits/(Pixel*Frame)          : 0.334
Stream size                 : 4.07 GiB (84%)
Title                       : seleZen
Writing library             : x264 core 148 r2705kMod 3f5ed56
Encoding settings           : cabac=1 / ref=12 / deblock=1:-2:-2 / analyse=0x3:0x133 / me=umh / subme=10 / psy=1 / fade_compensate=0.00 / psy_rd=1.20:0.05 / mixed_ref=1 / me_range=32 / chroma_me=1 / trellis=2 / 8x8dct=1 / cqm=0 / deadzone=21,11 / fast_pskip=0 / chroma_qp_offset=-3 / threads=12 / lookahead_threads=2 / sliced_threads=0 / nr=0 / decimate=0 / interlaced=0 / bluray_compat=0 / constrained_intra=0 / fgo=0 / bframes=8 / b_pyramid=2 / b_adapt=2 / b_bias=0 / direct=3 / weightb=1 / open_gop=0 / weightp=2 / keyint=240 / keyint_min=23 / scenecut=40 / intra_refresh=0 / rc_lookahead=50 / rc=2pass / mbtree=0 / bitrate=5500 / ratetol=1.0 / qcomp=0.60 / qpmin=0 / qpmax=51 / qpstep=4 / cplxblur=20.0 / qblur=0.5 / vbv_maxrate=50000 / vbv_bufsize=62500 / nal_hrd=none / filler=0 / ip_ratio=1.40 / pb_ratio=1.30 / aq=3:0.80
Language                    : English
Default                     : Yes
Forced                      : No

Audio #1
ID                          : 2
Format                      : AC-3
Format/Info                 : Audio Coding 3
Commercial name             : Dolby Digital
Codec ID                    : A_AC3
Duration                    : 1 h 46 min
Bit rate mode               : Constant
Bit rate                    : 384 kb/s
Channel(s)                  : 6 channels
Channel layout              : L R C LFE Ls Rs
Sampling rate               : 48.0 kHz
Frame rate                  : 31.250 FPS (1536 SPF)
Bit depth                   : 16 bits
Compression mode            : Lossy
Stream size                 : 291 MiB (6%)
Title                       : iTunes
Language                    : Russian
Service kind                : Complete Main
Default                     : Yes
Forced                      : Yes

Audio #2
ID                          : 3
Format                      : AC-3
Format/Info                 : Audio Coding 3
Commercial name             : Dolby Digital
Codec ID                    : A_AC3
Duration                    : 1 h 46 min
Bit rate mode               : Constant
Bit rate                    : 640 kb/s
Channel(s)                  : 6 channels
Channel layout              : L R C LFE Ls Rs
Sampling rate               : 48.0 kHz
Frame rate                  : 31.250 FPS (1536 SPF)
Bit depth                   : 16 bits
Compression mode            : Lossy
Stream size                 : 486 MiB (10%)
Title                       : Original
Language                    : English
Service kind                : Complete Main
Default                     : No
Forced                      : No

Text #1
ID                          : 4
Format                      : UTF-8
Codec ID                    : S_TEXT/UTF8
Codec ID/Info               : UTF-8 Plain Text
Duration                    : 1 h 37 min
Bit rate                    : 58 b/s
Count of elements           : 936
Stream size                 : 41.9 KiB (0%)
Title                       : Full
Language                    : Russian
Default                     : No
Forced                      : No

Text #2
ID                          : 5
Format                      : UTF-8
Codec ID                    : S_TEXT/UTF8
Codec ID/Info               : UTF-8 Plain Text
Duration                    : 1 h 41 min
Bit rate                    : 51 b/s
Count of elements           : 1353
Stream size                 : 38.0 KiB (0%)
Language                    : English
Default                     : No
Forced                      : No

Menu
00:00:00.000                : en:00:00:00.000
00:05:59.067                : en:00:05:59.067
00:10:00.350                : en:00:10:00.350
00:14:28.534                : en:00:14:28.534
00:23:08.178                : en:00:23:08.178
00:28:13.150                : en:00:28:13.150
00:33:22.083                : en:00:33:22.083
00:38:41.277                : en:00:38:41.277
00:44:33.629                : en:00:44:33.629
00:48:21.982                : en:00:48:21.982
00:53:24.368                : en:00:53:24.368
00:58:40.267                : en:00:58:40.267
01:05:25.755                : en:01:05:25.755
01:10:28.891                : en:01:10:28.891
01:15:44.081                : en:01:15:44.081
01:20:31.785                : en:01:20:31.785
01:24:44.705                : en:01:24:44.705
01:31:11.549                : en:01:31:11.549
01:36:13.935                : en:01:36:13.935
01:39:33.217                : en:01:39:33.217



Скриншоты:
[+] Всего файлов в раздаче - 1:
After.2019.D.BDRip.720p.seleZen.mkv4.83 GB

Показать еще раздачи по запросу после:
2019-07-05 U После / After (2019) BDRip от MegaPeer | iTunes 1.41 GB ↑ 56 ↓ 13
2019-07-04 U После / After (2019) BDRip-AVC от OlLanDGroup | iTunes 1.94 GB ↑ 43 ↓ 4
2019-07-04 U Мир после мира / Afterworld [01-13 из 13] (2007) SATRip | D 2.32 GB ↑ 81 ↓ 35
2019-07-03 U После / After (2019) BDRip 1080p от селезень | iTunes 9.39 GB ↑ 43 ↓ 43
2019-07-03 U После / After (2019) BDRip от MegaPeer | iTunes 1.41 GB ↑ 150 ↓ 62
2019-06-29 U После / After (2019) WEB-DLRip от Scarabey | iTunes 1.45 GB ↑ 89 ↓ 25
2019-06-26 U После / After (2019) WEB-DLRip | iTunes 1.46 GB ↑ 138 ↓ 39

Отзывы
Зарегистрируйтесь чтобы добавить комментарий.
Обратная связь
Copyleft ©