↑↓Torrent.by
Поиск
Логин: Регистрация
Пароль: Восстановить пароль
Загрузка...

Травма / Trauma (2017) WEB-DL 1080p | СВ Студия

Скачать travma-trauma-2017-web-dl-1080p-sv-studiya.torrent
U Магнитная ссылка Размер: 5.44 GB Раздают: 41 Качают: 32 Добавлен: 2019-07-05 13:40:58
Травма / Trauma (2017) WEB-DL 1080p | СВ Студия

Травма / Trauma

Страна: Чили
Производство: SBH Films, Border Motion Cinema, Too Much Films
Год выпуска: 2017
Жанр:  ужасы, боевик, триллер, драма
Продолжительность: 01:47:06

Режиссер: Лусио А. Рохас
В ролях: Каталина Мартин, Макарена Каррере, Химена дель Солар, Доминга Бофилл, Дэниэл Антивило, Эдуардо Паксеко, Фелипе Риос, Клаудио Риверос

Описание: Четыре подруги приезжают в чилийскую деревню, чтобы немного отдохнуть вдали от города. В разгар вечеринки на них нападают двое незнакомцев: отец и сын. Помочь девушкам попробуют двое местных полицейских. Никто из них еще не знает, что нападавшие несут в своей крови наследие самого жуткого периода в чилийской истории...

Перевод: Профессиональный (многоголосый, закадровый) | СВ Студия
Субтитры: английские (SDH)

Качество: WEB-DL 1080p
Формат: MKV
Видео кодек: AVC
Аудио кодек: АС3 | E-AC3
Видео: 1920x800 (2.40:1), 23.976 fps, MPEG-4 AVC ~5 994 kbps avg
Аудио №1: 48.0 kHz, AC3 Dolby Digital, 3/2 (L,C,R,l,r) + LFE ch, ~640 kbps | RUS / MVO
Аудио №2: 48.0 kHz, Enhanced Audio Coding 3, 3/2 (L,C,R,l,r) + LFE ch, ~640 kbps | SPA
Формат субтитров: UTF-8 Plain Text

Дата премьеры (мир): 28 октября 2017


[+] Media Info
General
Format                      : Matroska
Format version              : Version 4 / Version 2
File size                   : 5.44 GiB
Duration                    : 1 h 47 min
Overall bit rate            : 7 277 kb/s
Encoded date                : UTC 2019-07-04 18:42:15
Writing application         : mkvmerge v7.5.0 ('Glass Culture') 32bit built on Jan  4 2015 16:37:25
Writing library             : libebml v1.3.1 + libmatroska v1.4.2

Video
ID                          : 1
Format                      : AVC
Format/Info                 : Advanced Video Codec
Format profile              : High@L4
Format settings             : CABAC / 4 Ref Frames
Format settings, CABAC      : Yes
Format settings, ReFrames   : 4 frames
Codec ID                    : V_MPEG4/ISO/AVC
Duration                    : 1 h 47 min
Bit rate mode               : Constant
Bit rate                    : 5 994 kb/s
Nominal bit rate            : 10 000 kb/s
Width                       : 1 920 pixels
Height                      : 800 pixels
Display aspect ratio        : 2.40:1
Frame rate mode             : Constant
Frame rate                  : 23.976 (24000/1001) FPS
Color space                 : YUV
Chroma subsampling          : 4:2:0
Bit depth                   : 8 bits
Scan type                   : Progressive
Bits/(Pixel*Frame)          : 0.163
Stream size                 : 4.48 GiB (82%)
Default                     : Yes
Forced                      : No
Color range                 : Limited
Color primaries             : BT.709
Transfer characteristics    : BT.709
Matrix coefficients         : BT.709

Audio #1
ID                          : 2
Format                      : AC-3
Format/Info                 : Audio Coding 3
Commercial name             : Dolby Digital
Codec ID                    : A_AC3
Duration                    : 1 h 47 min
Bit rate mode               : Constant
Bit rate                    : 640 kb/s
Channel(s)                  : 6 channels
Channel layout              : L R C LFE Ls Rs
Sampling rate               : 48.0 kHz
Frame rate                  : 31.250 FPS (1536 SPF)
Bit depth                   : 16 bits
Compression mode            : Lossy
Stream size                 : 490 MiB (9%)
Title                       : СВ Студия
Language                    : Russian
Service kind                : Complete Main
Default                     : Yes
Forced                      : No

Audio #2
ID                          : 3
Format                      : E-AC-3
Format/Info                 : Enhanced AC-3
Commercial name             : Dolby Digital Plus
Codec ID                    : A_EAC3
Duration                    : 1 h 47 min
Bit rate mode               : Constant
Bit rate                    : 640 kb/s
Channel(s)                  : 6 channels
Channel layout              : L R C LFE Ls Rs
Sampling rate               : 48.0 kHz
Frame rate                  : 31.250 FPS (1536 SPF)
Compression mode            : Lossy
Stream size                 : 490 MiB (9%)
Language                    : Spanish
Service kind                : Complete Main
Default                     : No
Forced                      : No

Text
ID                          : 4
Format                      : UTF-8
Codec ID                    : S_TEXT/UTF8
Codec ID/Info               : UTF-8 Plain Text
Duration                    : 1 h 41 min
Bit rate                    : 30 b/s
Count of elements           : 850
Stream size                 : 22.7 KiB (0%)
Title                       : SDH
Language                    : English
Default                     : No
Forced                      : No



Скриншоты:
[+] Всего файлов в раздаче - 1:
Trauma.2017.1080p.AMZN.WEB-DL.mkv5.44 GB

Похожие раздачи по запросу - травма:
2019-07-05 U Травма / Trauma (2017) WEB-DLRip | СВ Студия 1.46 GB ↑ 64 ↓ 37
2018-06-15 U Дональд Калшед - Травма и душа. Духовно-психологический подход к человеческому развитию и его прерыванию (2015) FB2 1К3.68 MB ↑ 32 ↓ 5

Отзывы
Зарегистрируйтесь чтобы добавить комментарий.
Обратная связь
Copyleft ©