↑↓Torrent.by
Поиск
Логин: Регистрация
Пароль: Восстановить пароль
Загрузка...

Травма / Trauma (2017) WEB-DLRip | СВ Студия

Скачать travma-trauma-2017-web-dlrip-sv-studiya.torrent
U Магнитная ссылка Размер: 1.46 GB Раздают: 66 Качают: 37 Добавлен: 2019-07-05 18:25:06
Травма / Trauma (2017) WEB-DLRip | СВ Студия

Травма / Trauma

Страна: Чили
Производство: SBH Films, Border Motion Cinema, Too Much Films
Год выпуска: 2017
Жанр:  ужасы, боевик, триллер, драма
Продолжительность: 01:47:06

Режиссер: Лусио А. Рохас
В ролях: Каталина Мартин, Макарена Каррере, Химена дель Солар, Доминга Бофилл, Дэниэл Антивило, Эдуардо Паксеко, Фелипе Риос, Клаудио Риверос

Описание: Четыре подруги приезжают в чилийскую деревню, чтобы немного отдохнуть вдали от города. В разгар вечеринки на них нападают двое незнакомцев: отец и сын. Помочь девушкам попробуют двое местных полицейских. Никто из них еще не знает, что нападавшие несут в своей крови наследие самого жуткого периода в чилийской истории...

Перевод: Профессиональный (многоголосый, закадровый) | СВ Студия
Субтитры: английские (hardsub) / неотключаемые

Качество: WEB-DLRip
Формат: AVI
Видео кодек: XviD
Аудио кодек: АС3
Видео: 704x288 (2.40:1), 23.976 fps, XviD build 73 ~1 554 kbps avg
Аудио: 48.0 kHz, AC3 Dolby Digital, 3/2 (L,C,R,l,r) + LFE ch, ~384 kbps

Дата премьеры (мир): 28 октября 2017

Релиз от: порошков


[+] Media Info
General
Формат                                   : AVI
Формат/Информация                        : Audio Video Interleave
Размер файла                             : 1,46 Гбайт
Продолжительность                        : 1 ч. 47 м.
Общий поток                              : 1947 Кбит/сек
Название фильма                          : Травма_2018_WEB-DLRip
Программа кодирования                    : VirtualDubMod 1.5.10.3 | (build 2550/release)
Авторское право                          : порошков

Видео
Идентификатор                            : 0
Формат                                   : MPEG-4 Visual
Профиль формата                          : Advanced Simple@L5
Настройки формата                        : BVOP1 / Custom Matrix
Параметр BVOP формата                    : 1
Параметр QPel формата                    : Нет
Параметр GMC формата                     : Без точки перехода
Параметр матрицы формата                 : Выборочная
Идентификатор кодека                     : XVID
Идентификатор кодека/Подсказка           : XviD
Продолжительность                        : 1 ч. 47 м.
Битрейт                                  : 1554 Кбит/сек
Ширина                                   : 704 пикселя
Высота                                   : 288 пикселей
Соотношение сторон                       : 2,40:1
Частота кадров                           : 23,976 (24000/1001) кадра/сек
Цветовое пространство                    : YUV
Субдискретизация насыщенности            : 4:2:0
Битовая глубина                          : 8 бит
Тип развёртки                            : Прогрессивная
Метод сжатия                             : С потерями
Бит/(Пиксели*Кадры)                      : 0.320
Размер потока                            : 1,16 Гбайт (80%)
Библиотека кодирования                   : XviD 73

Аудио
Идентификатор                            : 1
Формат                                   : AC-3
Формат/Информация                        : Audio Coding 3
Коммерческое название                    : Dolby Digital
Идентификатор кодека                     : 2000
Продолжительность                        : 1 ч. 47 м.
Вид битрейта                             : Постоянный
Битрейт                                  : 384 Кбит/сек
Каналы                                   : 6 каналов
ChannelLayout                            : L R C LFE Ls Rs
Частота                                  : 48,0 КГц
Частота кадров                           : 31,250 кадров/сек (1536 SPF)
Битовая глубина                          : 16 бит
Метод сжатия                             : С потерями
Размер потока                            : 294 Мбайт (20%)
Выравнивание                             : Разделение по промежуткам
Продолжительность промежутка             : 42  мс. (1,00 видеокадр)
Время предзагрузки промежутка            : 500  мс.



Скриншоты:
[+] Всего файлов в раздаче - 1:
Травма_2018_WEB-DLRip.avi1.46 GB

Похожие раздачи по запросу - травма:
2019-07-05 U Травма / Trauma (2017) WEB-DL 1080p | СВ Студия 5.44 GB ↑ 41 ↓ 32
2018-06-15 U Дональд Калшед - Травма и душа. Духовно-психологический подход к человеческому развитию и его прерыванию (2015) FB2 1К3.68 MB ↑ 32 ↓ 5

Отзывы
Зарегистрируйтесь чтобы добавить комментарий.
Обратная связь
Copyleft ©