↑↓Torrent.by
Поиск
Логин: Регистрация
Пароль: Восстановить пароль
Загрузка...

Капитан Марвел / Captain Marvel (2019) BDRip-HEVC 1080p | Лицензия

Скачать kapitan-marvel-captain-2019-bdrip-hevc-1080p-licenziya.torrent
U Магнитная ссылка Размер: 4.45 GB Раздают: 47 Качают: 14 Добавлен: 2019-07-05 18:25:39
Капитан Марвел / Captain Marvel (2019) BDRip-HEVC 1080p | Лицензия

Название: Капитан Марвел
Оригинальное название: Captain Marvel
Год выхода: 2019
Жанр: фантастика, боевик, приключения
Режиссер: Анна Боден, Райан Флек
В ролях: Бри Ларсон, Сэмюэл Л. Джексон, Бен Мендельсон, Джимон Хонсу, Ли Пейс, Лашана Линч, Джемма Чан, Аннетт Бенинг, Кларк Грегг, Джуд Лоу

О фильме:
После столкновения с враждующими инопланетными расами, пилот военно-воздушных сил Кэрол Дэнверс обретает суперсилу и становится неуязвимой. Героине предстоит совладать со своими новыми способностями, чтобы противостоять могущественному врагу.


Страна: США
Студия: Marvel Studios, Walt Disney Studios Motion Pictures
Продолжительность: 02:03:42
Перевод: Дублированный

Файл
Кодек: HEVC
Качество: BDRip-HEVC 1080p
Видео: 1920x804, ~3419 Kbps, 23.976 fps, 10 bit
Аудио 1: AC3, 6 ch, 640 Kbps (русский дублированный)
Аудио 2: AC3, 6 ch, 448 Kbps (украинский дублированный)
Аудио 3: AC3, 6 ch, 640 Kbps (Оригинал)
Субтитры: Русские (Forced, Full, SDH), Английские (Full, SDH)
[+] MediaInfo
Общее
Уникальный идентификатор                 : 166090702074041290604136853209543959079 (0x7CF3E7D96407E61BC0978F33576D6227)
Полное имя                               : H:InstallUpload2Captain Marvel (2019) BDRip 1080p [HEVC].mkv
Формат                                   : Matroska
Версия формата                           : Version 4
Размер файла                             : 4,45 Гбайт
Продолжительность                        : 2 ч. 3 м.
Общий поток                              : 5151 Кбит/сек
Название фильма                          : Captain Marvel (2019)
Дата кодирования                         : UTC 2019-07-04 03:17:04
Программа кодирования                    : mkvmerge v35.0.0 ('All The Love In The World') 64-bit
Библиотека кодирования                   : libebml v1.3.9 + libmatroska v1.5.2
Обложка                                  : Yes
Attachments                              : cover.jpg

Видео
Идентификатор                            : 1
Формат                                   : HEVC
Формат/Информация                        : High Efficiency Video Coding
Профиль формата                          : Main 10@L4.1@High
Идентификатор кодека                     : V_MPEGH/ISO/HEVC
Продолжительность                        : 2 ч. 3 м.
Битрейт                                  : 3419 Кбит/сек
Ширина                                   : 1920 пикселей
Высота                                   : 804 пикселя
Соотношение сторон                       : 2,40:1
Режим частоты кадров                     : Постоянный
Частота кадров                           : 23,976 (23976/1000) кадра/сек
Частота кадров в оригинале               : 23,976 (24000/1001) кадра/сек
Цветовое пространство                    : YUV
Субдискретизация насыщенности            : 4:2:0
Битовая глубина                          : 10 бит
Бит/(Пиксели*Кадры)                      : 0.092
Размер потока                            : 2,95 Гбайт (66%)
Библиотека кодирования                   : x265 3.0_Au+4-dcbec33bfb0f:[Windows][MSVC 1916][64 bit] 10bit
Настройки программы                      : cpuid=1111039 / frame-threads=3 / numa-pools=12 / wpp / no-pmode / no-pme / no-psnr / no-ssim / log-level=2 / input-csp=1 / input-res=1920x804 / interlace=0 / total-frames=86191 / level-idc=41 / high-tier=1 / uhd-bd=0 / ref=5 / no-allow-non-conformance / no-repeat-headers / annexb / no-aud / no-hrd / info / hash=0 / no-temporal-layers / open-gop / min-keyint=23 / keyint=240 / gop-lookahead=0 / bframes=14 / b-adapt=2 / b-pyramid / bframe-bias=0 / rc-lookahead=60 / lookahead-slices=4 / scenecut=40 / radl=0 / no-splice / no-intra-refresh / ctu=32 / min-cu-size=8 / rect / amp / max-tu-size=32 / tu-inter-depth=4 / tu-intra-depth=4 / limit-tu=1 / rdoq-level=2 / dynamic-rd=0.00 / no-ssim-rd / signhide / no-tskip / nr-intra=0 / nr-inter=0 / no-constrained-intra / no-strong-intra-smoothing / max-merge=4 / limit-refs=2 / limit-modes / me=3 / subme=7 / merange=57 / temporal-mvp / weightp / weightb / no-analyze-src-pics / deblock=-3:-3 / no-sao / no-sao-non-deblock / rd=6 / no-early-skip / no-rskip / no-fast-intra / no-tskip-fast / no-cu-lossless / no-b-intra / no-splitrd-skip / rdpenalty=0 / psy-rd=2.00 / psy-rdoq=1.00 / no-rd-refine / no-lossless / cbqpoffs=0 / crqpoffs=0 / rc=crf / crf=21.0 / qcomp=0.60 / qpstep=4 / stats-write=0 / stats-read=0 / vbv-maxrate=50000 / vbv-bufsize=50000 / vbv-init=0.9 / crf-max=0.0 / crf-min=0.0 / ipratio=1.40 / pbratio=1.30 / aq-mode=1 / aq-strength=1.00 / no-cutree / zone-count=0 / no-strict-cbr / qg-size=32 / no-rc-grain / qpmax=69 / qpmin=0 / no-const-vbv / sar=1 / overscan=0 / videoformat=5 / range=0 / colorprim=2 / transfer=2 / colormatrix=2 / chromaloc=0 / display-window=0 / max-cll=0,0 / min-luma=0 / max-luma=1023 / log2-max-poc-lsb=8 / vui-timing-info / vui-hrd-info / slices=1 / no-opt-qp-pps / no-opt-ref-list-length-pps / no-multi-pass-opt-rps / scenecut-bias=0.05 / no-opt-cu-delta-qp / no-aq-motion / no-hdr / no-hdr-opt / no-dhdr10-opt / no-idr-recovery-sei / analysis-reuse-level=5 / scale-factor=0 / refine-intra=0 / refine-inter=0 / refine-mv=0 / refine-ctu-distortion=0 / no-limit-sao / ctu-info=0 / no-lowpass-dct / refine-analysis-type=0 / copy-pic=1 / max-ausize-factor=1.0 / no-dynamic-refine / no-single-sei / no-hevc-aq / qp-adaptation-range=1.00
Default                                  : Да
Forced                                   : Нет

Аудио #1
Идентификатор                            : 2
Формат                                   : AC-3
Формат/Информация                        : Audio Coding 3
Коммерческое название                    : Dolby Digital
Идентификатор кодека                     : A_AC3
Продолжительность                        : 2 ч. 3 м.
Вид битрейта                             : Постоянный
Битрейт                                  : 640 Кбит/сек
Каналы                                   : 6 каналов
Channel layout                           : L R C LFE Ls Rs
Частота                                  : 48,0 КГц
Частота кадров                           : 31,250 кадров/сек (1536 SPF)
Битовая глубина                          : 16 бит
Метод сжатия                             : С потерями
Размер потока                            : 566 Мбайт (12%)
Заголовок                                : Dub [License]
Язык                                     : Russian
ServiceKind                              : Complete Main
Default                                  : Да
Forced                                   : Да

Аудио #2
Идентификатор                            : 3
Формат                                   : AC-3
Формат/Информация                        : Audio Coding 3
Коммерческое название                    : Dolby Digital
Идентификатор кодека                     : A_AC3
Продолжительность                        : 2 ч. 3 м.
Вид битрейта                             : Постоянный
Битрейт                                  : 448 Кбит/сек
Каналы                                   : 6 каналов
Channel layout                           : L R C LFE Ls Rs
Частота                                  : 48,0 КГц
Частота кадров                           : 31,250 кадров/сек (1536 SPF)
Битовая глубина                          : 16 бит
Метод сжатия                             : С потерями
Размер потока                            : 396 Мбайт (9%)
Язык                                     : Ukrainian
ServiceKind                              : Complete Main
Default                                  : Нет
Forced                                   : Нет

Аудио #3
Идентификатор                            : 4
Формат                                   : AC-3
Формат/Информация                        : Audio Coding 3
Коммерческое название                    : Dolby Digital
Идентификатор кодека                     : A_AC3
Продолжительность                        : 2 ч. 3 м.
Вид битрейта                             : Постоянный
Битрейт                                  : 640 Кбит/сек
Каналы                                   : 6 каналов
Channel layout                           : L R C LFE Ls Rs
Частота                                  : 48,0 КГц
Частота кадров                           : 31,250 кадров/сек (1536 SPF)
Битовая глубина                          : 16 бит
Метод сжатия                             : С потерями
Размер потока                            : 566 Мбайт (12%)
Заголовок                                : Original
Язык                                     : English
ServiceKind                              : Complete Main
Default                                  : Нет
Forced                                   : Нет

Текст #1
Идентификатор                            : 5
Формат                                   : UTF-8
Идентификатор кодека                     : S_TEXT/UTF8
Идентификатор кодека/Информация          : UTF-8 Plain Text
Продолжительность                        : 1 ч. 55 м.
Битрейт                                  : 1 бит/сек
ElementCount                             : 17
Размер потока                            : 937 байт (0%)
Заголовок                                : Forced
Язык                                     : Russian
Default                                  : Да
Forced                                   : Да

Текст #2
Идентификатор                            : 6
Формат                                   : UTF-8
Идентификатор кодека                     : S_TEXT/UTF8
Идентификатор кодека/Информация          : UTF-8 Plain Text
Продолжительность                        : 2 ч. 2 м.
Битрейт                                  : 65 бит/сек
ElementCount                             : 1314
Размер потока                            : 58,8 Кбайт (0%)
Заголовок                                : Full
Язык                                     : Russian
Default                                  : Нет
Forced                                   : Нет

Текст #3
Идентификатор                            : 7
Формат                                   : UTF-8
Идентификатор кодека                     : S_TEXT/UTF8
Идентификатор кодека/Информация          : UTF-8 Plain Text
Продолжительность                        : 2 ч. 2 м.
Битрейт                                  : 77 бит/сек
ElementCount                             : 1637
Размер потока                            : 69,2 Кбайт (0%)
Заголовок                                : SDH
Язык                                     : Russian
Default                                  : Нет
Forced                                   : Нет

Текст #4
Идентификатор                            : 8
Формат                                   : UTF-8
Идентификатор кодека                     : S_TEXT/UTF8
Идентификатор кодека/Информация          : UTF-8 Plain Text
Продолжительность                        : 1 ч. 53 м.
Битрейт                                  : 47 бит/сек
ElementCount                             : 1422
Размер потока                            : 39,6 Кбайт (0%)
Заголовок                                : Full
Язык                                     : English
Default                                  : Нет
Forced                                   : Нет

Текст #5
Идентификатор                            : 9
Формат                                   : UTF-8
Идентификатор кодека                     : S_TEXT/UTF8
Идентификатор кодека/Информация          : UTF-8 Plain Text
Продолжительность                        : 2 ч. 2 м.
Битрейт                                  : 50 бит/сек
ElementCount                             : 1668
Размер потока                            : 45,1 Кбайт (0%)
Заголовок                                : SDH
Язык                                     : English
Default                                  : Нет
Forced                                   : Нет

Текст #6
Идентификатор                            : 10
Формат                                   : UTF-8
Идентификатор кодека                     : S_TEXT/UTF8
Идентификатор кодека/Информация          : UTF-8 Plain Text
Продолжительность                        : 2 ч. 2 м.
Битрейт                                  : 67 бит/сек
ElementCount                             : 1665
Размер потока                            : 60,9 Кбайт (0%)
Заголовок                                : SDH Colored
Язык                                     : English
Default                                  : Нет
Forced                                   : Нет

Меню
00:00:00.000                             : en:00:00:00.000
00:06:52.120                             : en:00:06:52.120
00:14:07.889                             : en:00:14:07.889
00:23:18.272                             : en:00:23:18.272
00:29:38.026                             : en:00:29:38.026
00:35:07.772                             : en:00:35:07.772
00:44:08.437                             : en:00:44:08.437
00:50:43.499                             : en:00:50:43.499
00:56:18.625                             : en:00:56:18.625
01:03:02.821                             : en:01:03:02.821
01:11:17.398                             : en:01:11:17.398
01:17:49.164                             : en:01:17:49.164
01:27:03.051                             : en:01:27:03.051
01:33:22.430                             : en:01:33:22.430
01:40:51.796                             : en:01:40:51.796
01:46:25.087                             : en:01:46:25.087
01:52:49.888                             : en:01:52:49.888



Скриншоты:
[+] Всего файлов в раздаче - 1:
Captain Marvel (2019) BDRip 1080p [HEVC].mkv4.45 GB

Показать еще раздачи по запросу капитан:
2019-07-07 U Капитан Марвел / Captain Marvel (2019) BDRip 720p от Scarabey | Лицензия 5.31 GB ↑ 265 ↓ 6
2019-07-06 U Капитан Марвел / Captain Marvel (2019) HDRip от Scarabey | Лицензия 1.45 GB ↑ 516 ↓ 10
2019-07-05 U Капитан Марвел / Captain Marvel (2019) BDRip-HEVC 1080p от HANNIBAL | Лицензия 6.52 GB ↑ 58 ↓ 14
2019-07-05 U Капитан Марвел / Captain Marvel (2019) BDRip-HEVC 720p | Лицензия 2.31 GB ↑ 31 ↓ 9
2019-07-05 U Капитан Марвел / Captain Marvel (2019) HDRip от Scarabey | Лицензия 749.76 MB ↑ 28 ↓ 7
2019-07-04 U Капитан Марвел / Captain Marvel (2019) HDRip от Scarabey | Лицензия 2.17 GB ↑ 115 ↓ 6
2019-07-04 U Капитан Марвел / Captain Marvel (2019) BDRip 1080p от qqss44 & MegaPeer | Лицензия 7.75 GB ↑ 141 ↓ 129

Отзывы
Зарегистрируйтесь чтобы добавить комментарий.
Обратная связь
Copyleft ©