↑↓Torrent.by
Поиск
Логин: Регистрация
Пароль: Восстановить пароль

Плейбой под прикрытием / Nicky Larson et le parfum de Cupidon (2018) BDRip 1080p от селезень | iTunes

Скачать pleyboy-pod-prikrytiem-nicky-larson-et-le-parfum-de-cupidon-2018-bdrip-1080p-ot-selezen-itunes.torrent
U Магнитная ссылка Размер: 7.26 GB Раздают: 827 Качают: 303 Добавлен: 2019-07-06 08:46:44
Плейбой под прикрытием / Nicky Larson et le parfum de Cupidon (2018) BDRip 1080p от селезень | iTunes

Название: Плейбой под прикрытием
Оригинальное название: Nicky Larson et le parfum de Cupidon
Год выхода: 2018
Жанр: Боевик, комедия, криминал
Режиссер: Филипп Лашо
В ролях: Филипп Лашо, Элоди Фонтан, Тарек Будали, Жюльен Аррути, Дидье Бурдон, Памела Андерсон, Жерар Жюньо, Камел Генфу, Одри Лами, Шанталь Ладезу

О фильме: Частный детектив (и ловелас по совместительству), известный как Городской Охотник, получает на руки запутанное дело. По просьбе своей эффектной и неприступной напарницы сыщик соглашается взяться за работу. Теперь плейбою под прикрытием предстоит отправиться в Монако - на территорию больших денег и красивых женщин...

Страна: Франция
Студия: Axel Films, Baf Prod, M6 Films
Продолжительность: 01:31:15
Перевод: Дублированный | iTunes

Качество: BDRip 1080p
Видео: MPEG-4 AVC, 1920x804, 10.0 Mbit/s, 24 fps
Звук:
Аудио #01: 48 kHz, AC3, 5.1, 384 Kbps | iTunes | RUS |
Аудио #02: 48 kHz, AC3, 5.1, 384 Kbps | iTunes | UKR |
Аудио #03: 48 kHz, AC3, 5.1, 640 Kbps | Оригинал |  FRE |
Субтитры: Русские (full), французские

Релиз:


[+] MI
General
Unique ID                   : 172629306235750267906444353034688743420 (0x81DF31EC8E941B528AB38651D24547FC)
Complete name               : D:Video111Nicky.Larson.et.le.parfum.de.Cupidon.2018.BDRip.1080p.seleZen.mkv
Format                      : Matroska
Format version              : Version 4
File size                   : 7.26 GiB
Duration                    : 1 h 31 min
Overall bit rate            : 11.4 Mb/s
Movie name                  : Nicky Larson et le parfum de Cupidon 2018 from селезень
Encoded date                : UTC 2019-07-05 15:38:00
Writing application         : mkvmerge v35.0.0 ('All The Love In The World') 64-bit
Writing library             : libebml v1.3.9 + libmatroska v1.5.2

Video
ID                          : 1
Format                      : AVC
Format/Info                 : Advanced Video Codec
Format profile              : High@L4.1
Format settings             : CABAC / 5 Ref Frames
Format settings, CABAC      : Yes
Format settings, Reference  : 5 frames
Codec ID                    : V_MPEG4/ISO/AVC
Duration                    : 1 h 31 min
Bit rate                    : 10 000 kb/s
Width                       : 1 920 pixels
Height                      : 804 pixels
Display aspect ratio        : 2.40:1
Frame rate mode             : Constant
Frame rate                  : 24.000 FPS
Color space                 : YUV
Chroma subsampling          : 4:2:0
Bit depth                   : 8 bits
Scan type                   : Progressive
Bits/(Pixel*Frame)          : 0.270
Stream size                 : 6.36 GiB (88%)
Title                       : seleZen
Writing library             : x264 core 148 r2705kMod 3f5ed56
Encoding settings           : cabac=1 / ref=5 / deblock=1:-2:-2 / analyse=0x3:0x133 / me=umh / subme=10 / psy=1 / fade_compensate=0.00 / psy_rd=1.20:0.07 / mixed_ref=1 / me_range=32 / chroma_me=1 / trellis=2 / 8x8dct=1 / cqm=0 / deadzone=21,11 / fast_pskip=0 / chroma_qp_offset=-3 / threads=12 / lookahead_threads=2 / sliced_threads=0 / nr=0 / decimate=0 / interlaced=0 / bluray_compat=0 / constrained_intra=0 / fgo=0 / bframes=8 / b_pyramid=2 / b_adapt=2 / b_bias=0 / direct=3 / weightb=1 / open_gop=0 / weightp=2 / keyint=240 / keyint_min=24 / scenecut=40 / intra_refresh=0 / rc_lookahead=50 / rc=2pass / mbtree=0 / bitrate=10000 / ratetol=1.0 / qcomp=0.60 / qpmin=0 / qpmax=51 / qpstep=4 / cplxblur=20.0 / qblur=0.5 / vbv_maxrate=50000 / vbv_bufsize=62500 / nal_hrd=none / filler=0 / ip_ratio=1.40 / pb_ratio=1.30 / aq=3:0.80
Language                    : English
Default                     : Yes
Forced                      : No

Audio #1
ID                          : 2
Format                      : AC-3
Format/Info                 : Audio Coding 3
Commercial name             : Dolby Digital
Codec ID                    : A_AC3
Duration                    : 1 h 31 min
Bit rate mode               : Constant
Bit rate                    : 384 kb/s
Channel(s)                  : 6 channels
Channel layout              : L R C LFE Ls Rs
Sampling rate               : 48.0 kHz
Frame rate                  : 31.250 FPS (1536 SPF)
Bit depth                   : 16 bits
Compression mode            : Lossy
Stream size                 : 251 MiB (3%)
Title                       : iTunes
Language                    : Russian
Service kind                : Complete Main
Default                     : Yes
Forced                      : Yes

Audio #2
ID                          : 3
Format                      : AC-3
Format/Info                 : Audio Coding 3
Commercial name             : Dolby Digital
Codec ID                    : A_AC3
Duration                    : 1 h 31 min
Bit rate mode               : Constant
Bit rate                    : 384 kb/s
Channel(s)                  : 6 channels
Channel layout              : L R C LFE Ls Rs
Sampling rate               : 48.0 kHz
Frame rate                  : 31.250 FPS (1536 SPF)
Bit depth                   : 16 bits
Compression mode            : Lossy
Stream size                 : 251 MiB (3%)
Title                       : iTunes
Language                    : Ukrainian
Service kind                : Complete Main
Default                     : No
Forced                      : No

Audio #3
ID                          : 4
Format                      : AC-3
Format/Info                 : Audio Coding 3
Commercial name             : Dolby Digital
Codec ID                    : A_AC3
Duration                    : 1 h 31 min
Bit rate mode               : Constant
Bit rate                    : 640 kb/s
Channel(s)                  : 6 channels
Channel layout              : L R C LFE Ls Rs
Sampling rate               : 48.0 kHz
Frame rate                  : 31.250 FPS (1536 SPF)
Bit depth                   : 16 bits
Compression mode            : Lossy
Stream size                 : 418 MiB (6%)
Title                       : Original
Language                    : French
Service kind                : Complete Main
Default                     : No
Forced                      : No

Text #1
ID                          : 5
Format                      : UTF-8
Codec ID                    : S_TEXT/UTF8
Codec ID/Info               : UTF-8 Plain Text
Duration                    : 1 h 30 min
Bit rate                    : 77 b/s
Count of elements           : 1188
Stream size                 : 51.4 KiB (0%)
Title                       : Full
Language                    : Russian
Default                     : No
Forced                      : No

Text #2
ID                          : 6
Format                      : UTF-8
Codec ID                    : S_TEXT/UTF8
Codec ID/Info               : UTF-8 Plain Text
Duration                    : 1 h 30 min
Bit rate                    : 61 b/s
Count of elements           : 1743
Stream size                 : 40.5 KiB (0%)
Title                       : Full
Language                    : French
Default                     : No
Forced                      : No

Menu
00:00:00.000                : en:Chapter 01
00:06:35.542                : en:Chapter 02
00:17:02.208                : en:Chapter 03
00:26:28.583                : en:Chapter 04
00:33:25.500                : en:Chapter 05
00:40:12.375                : en:Chapter 06
00:48:23.792                : en:Chapter 07
00:53:50.375                : en:Chapter 08
01:04:50.708                : en:Chapter 09
01:09:02.292                : en:Chapter 10
01:20:15.667                : en:Chapter 11
01:28:28.292                : en:Chapter 12



Скриншоты:
[+] Всего файлов в раздаче - 1:
Nicky.Larson.et.le.parfum.de.Cupidon.2018.BDRip.1080p.seleZen.mkv7.26 GB

Похожие раздачи по запросу - плейбой:
2019-09-03 U Плейбой: Горячие губки, горячие ножки / Playboy: Hot Lips Hot Legs (2003) DVDRip 700.40 MB ↑ 97 ↓ 36
2019-07-08 U Плейбой под прикрытием / Nicky Larson et le parfum de Cupidon (2018) BDRip-HEVC 1080p | iTunes 4.26 GB ↑ 185 ↓ 57
2019-07-07 U Плейбой под прикрытием / Nicky Larson et le parfum de Cupidon (2018) BDRip-AVC от ExKinoRay | iTunes 2.25 GB ↑ 38 ↓ 8
2019-07-06 U Плейбой под прикрытием / Nicky Larson et le parfum de Cupidon (2018) BDRip от MegaPeer | iTunes 1.42 GB ↑ 1185 ↓ 378

Отзывы
Ubivec
Нее, это Нагиев,однозначно! У кого еще какие ассоциации?))

dimongix
Фильм сделан по манге "Городской охотник". (Для тех, кто в теме)
Классный фильм.

Ella
Спасибо, французы,это всегда качество

Зарегистрируйтесь чтобы добавить комментарий.
Обратная связь
Copyleft ©