↑↓Torrent.by
Поиск
Логин: Регистрация
Пароль: Восстановить пароль
Загрузка...

Плейбой под прикрытием / Nicky Larson et le parfum de Cupidon (2018) BDRemux 1080p от селезень | iTunes

Скачать pleyboy-pod-prikrytiem-nicky-larson-et-le-parfum-de-cupidon-2018-bdremux-1080p-ot-selezen-itunes.torrent
U Магнитная ссылка Размер: 17.85 GB Раздают: 74 Качают: 71 Добавлен: 2019-07-06 08:47:18
Плейбой под прикрытием / Nicky Larson et le parfum de Cupidon (2018) BDRemux 1080p от селезень | iTunes

Название: Плейбой под прикрытием
Оригинальное название: Nicky Larson et le parfum de Cupidon
Год выхода: 2018
Жанр: Боевик, комедия, криминал
Режиссер: Филипп Лашо
В ролях: Филипп Лашо, Элоди Фонтан, Тарек Будали, Жюльен Аррути, Дидье Бурдон, Памела Андерсон, Жерар Жюньо, Камел Генфу, Одри Лами, Шанталь Ладезу

О фильме: Частный детектив (и ловелас по совместительству), известный как Городской Охотник, получает на руки запутанное дело. По просьбе своей эффектной и неприступной напарницы сыщик соглашается взяться за работу. Теперь плейбою под прикрытием предстоит отправиться в Монако - на территорию больших денег и красивых женщин...

Страна: Франция
Студия: Axel Films, Baf Prod, M6 Films
Продолжительность: 01:31:15
Перевод: Дублированный | iTunes

Качество: BDRemux 1080p
Видео: MPEG-4 AVC, 1920x1080, 25.1 Mbit/s, 24 fps
Звук:
Аудио #01: 48 kHz, AC3, 5.1, 384 Kbps | iTunes | RUS |
Аудио #02: 48 kHz, AC3, 5.1, 384 Kbps | iTunes | UKR |
Аудио #03: 48 kHz, DTS-HD MA, 5.1, 2126 Kbps | Оригинал |  FRE |
Субтитры: Русские (full), французские

Релиз:


[+] MI
General
Unique ID                   : 309102009895245066395030428800094544698 (0xE88AE1B54E38D5F3206CE4EE361FA33A)
Complete name               : D:Video111Nicky.Larson.et.le.parfum.de.Cupidon.2018.BDREMUX.1080p.seleZen.mkv
Format                      : Matroska
Format version              : Version 4
File size                   : 17.9 GiB
Duration                    : 1 h 31 min
Overall bit rate mode       : Variable
Overall bit rate            : 28.0 Mb/s
Movie name                  : Nicky Larson et le parfum de Cupidon 2018 from селезень
Encoded date                : UTC 2019-07-05 15:52:14
Writing application         : mkvmerge v35.0.0 ('All The Love In The World') 64-bit
Writing library             : libebml v1.3.9 + libmatroska v1.5.2

Video
ID                          : 1
Format                      : AVC
Format/Info                 : Advanced Video Codec
Format profile              : High@L4.1
Format settings             : CABAC / 4 Ref Frames
Format settings, CABAC      : Yes
Format settings, Reference  : 4 frames
Format settings, GOP        : M=3, N=24
Codec ID                    : V_MPEG4/ISO/AVC
Duration                    : 1 h 31 min
Bit rate mode               : Variable
Bit rate                    : 25.1 Mb/s
Maximum bit rate            : 30.0 Mb/s
Width                       : 1 920 pixels
Height                      : 1 080 pixels
Display aspect ratio        : 16:9
Frame rate mode             : Constant
Frame rate                  : 24.000 FPS
Color space                 : YUV
Chroma subsampling          : 4:2:0
Bit depth                   : 8 bits
Scan type                   : Progressive
Bits/(Pixel*Frame)          : 0.505
Stream size                 : 16.0 GiB (90%)
Language                    : French
Default                     : Yes
Forced                      : No
Color range                 : Limited
Color primaries             : BT.709
Transfer characteristics    : BT.709
Matrix coefficients         : BT.709

Audio #1
ID                          : 2
Format                      : AC-3
Format/Info                 : Audio Coding 3
Commercial name             : Dolby Digital
Codec ID                    : A_AC3
Duration                    : 1 h 31 min
Bit rate mode               : Constant
Bit rate                    : 384 kb/s
Channel(s)                  : 6 channels
Channel layout              : L R C LFE Ls Rs
Sampling rate               : 48.0 kHz
Frame rate                  : 31.250 FPS (1536 SPF)
Bit depth                   : 16 bits
Compression mode            : Lossy
Stream size                 : 251 MiB (1%)
Title                       : iTunes
Language                    : Russian
Service kind                : Complete Main
Default                     : Yes
Forced                      : Yes

Audio #2
ID                          : 3
Format                      : AC-3
Format/Info                 : Audio Coding 3
Commercial name             : Dolby Digital
Codec ID                    : A_AC3
Duration                    : 1 h 31 min
Bit rate mode               : Constant
Bit rate                    : 384 kb/s
Channel(s)                  : 6 channels
Channel layout              : L R C LFE Ls Rs
Sampling rate               : 48.0 kHz
Frame rate                  : 31.250 FPS (1536 SPF)
Bit depth                   : 16 bits
Compression mode            : Lossy
Stream size                 : 251 MiB (1%)
Title                       : iTunes
Language                    : Ukrainian
Service kind                : Complete Main
Default                     : No
Forced                      : No

Audio #3
ID                          : 4
Format                      : DTS XLL
Format/Info                 : Digital Theater Systems
Commercial name             : DTS-HD Master Audio
Codec ID                    : A_DTS
Duration                    : 1 h 31 min
Bit rate mode               : Variable
Bit rate                    : 2 126 kb/s
Channel(s)                  : 6 channels
Channel layout              : C L R Ls Rs LFE
Sampling rate               : 48.0 kHz
Frame rate                  : 93.750 FPS (512 SPF)
Bit depth                   : 16 bits
Compression mode            : Lossless
Stream size                 : 1.36 GiB (8%)
Title                       : Original
Language                    : French
Default                     : No
Forced                      : No

Text #1
ID                          : 5
Format                      : UTF-8
Codec ID                    : S_TEXT/UTF8
Codec ID/Info               : UTF-8 Plain Text
Duration                    : 1 h 30 min
Bit rate                    : 77 b/s
Count of elements           : 1188
Stream size                 : 51.4 KiB (0%)
Title                       : Full
Language                    : Russian
Default                     : No
Forced                      : No

Text #2
ID                          : 6
Format                      : UTF-8
Codec ID                    : S_TEXT/UTF8
Codec ID/Info               : UTF-8 Plain Text
Duration                    : 1 h 30 min
Bit rate                    : 61 b/s
Count of elements           : 1743
Stream size                 : 40.5 KiB (0%)
Title                       : Full
Language                    : French
Default                     : No
Forced                      : No

Menu
00:00:00.000                : en:Chapter 01
00:06:35.542                : en:Chapter 02
00:17:02.208                : en:Chapter 03
00:26:28.583                : en:Chapter 04
00:33:25.500                : en:Chapter 05
00:40:12.375                : en:Chapter 06
00:48:23.792                : en:Chapter 07
00:53:50.375                : en:Chapter 08
01:04:50.708                : en:Chapter 09
01:09:02.292                : en:Chapter 10
01:20:15.667                : en:Chapter 11
01:28:28.292                : en:Chapter 12



Скриншоты:
[+] Всего файлов в раздаче - 1:
Nicky.Larson.et.le.parfum.de.Cupidon.2018.BDREMUX.1080p.seleZen.mkv17.85 GB

Показать еще раздачи по запросу плейбой:
2019-09-03 U Плейбой: Горячие губки, горячие ножки / Playboy: Hot Lips Hot Legs (2003) DVDRip 700.40 MB ↑ 90 ↓ 34
2019-07-08 U Плейбой под прикрытием / Nicky Larson et le parfum de Cupidon (2018) BDRip-HEVC 1080p | iTunes 4.26 GB ↑ 147 ↓ 57
2019-07-07 U Плейбой под прикрытием / Nicky Larson et le parfum de Cupidon (2018) BDRip-AVC от New-Team | D 746.41 MB ↑ 85 ↓ 16
2019-07-07 U Плейбой под прикрытием / Nicky Larson et le parfum de Cupidon (2018) BDRip-AVC от ExKinoRay | iTunes 2.25 GB ↑ 33 ↓ 8
2019-07-07 U Плейбой под прикрытием / Nicky Larson et le parfum de Cupidon (2018) BDRip от Twister & ExKinoRay | iTunes 1.42 GB ↑ 89 ↓ 20
2019-07-06 U Плейбой под прикрытием / Nicky Larson et le parfum de Cupidon (2018) BDRip-AVC от New-Team | D 1.48 GB ↑ 88 ↓ 41
2019-07-06 U Плейбой под прикрытием / Nicky Larson et le parfum de Cupidon (2018) BDRip 1080p от селезень | iTunes 3К7.26 GB ↑ 740 ↓ 302

Отзывы
Зарегистрируйтесь чтобы добавить комментарий.
Обратная связь
Copyleft ©