↑↓Torrent.by
Поиск
Логин: Регистрация
Пароль: Восстановить пароль
Загрузка...

Мы всегда жили в замке / We Have Always Lived in the Castle (2018) WEB-DL 1080p от селезень | D, P | iTunes

Скачать my-vsegda-zhili-v-zamke-we-have-always-lived-in-the-castle-2018-web-dl-1080p-ot-selezen-d-p-itunes.torrent
U Магнитная ссылка Размер: 5.62 GB Раздают: 59 Качают: 34 Добавлен: 2019-07-06 08:47:32
Мы всегда жили в замке / We Have Always Lived in the Castle (2018) WEB-DL 1080p от селезень | D, P | iTunes

Название: Мы всегда жили в замке
Оригинальное название: We Have Always Lived in the Castle
Год выхода: 2018
Жанр: Триллер, драма, детектив
Режиссер: Стэйси Пассон
В ролях: Таисса Фармига, Александра Даддарио, Стефен Хоган, Себастьян Стэн, Криспин Гловер, Патрик Джозеф Бернс, Уна Кэрролл, Питер Кунан, Джоэнн Кроуфорд, Боско Хоган

О фильме: История семьи отшельников Блэквудов — двух молодых сестёр и больного дяди, — которые стали мишенью злых пересудов после загадочной гибели остальных родственников. Сёстры укрываются в поместье — своем особенном закрытом мире, чьи границы самовольно нарушает красавец-кузен, приехавший с корыстными намерениями.

Страна: США
Студия: Mighty Engine, Furthur Films, Albyn Media
Продолжительность: 01:35:14
Перевод(ы):
#1: Дублированный | iTunes
#2: Профессиональный многоголосый | HDRezka Studio

Качество: WEB-DL 1080p
Видео: MPEG-4 AVC, 1920x1080, 7232 Kbit/s, 24 fps
Звук:
Аудио #01: 48 kHz, AC3, 5.1, 384 Kbps | iTunes | RUS |
Аудио #02: 48 kHz, AC3, 2.0, 192 Kbps | HDRezka Studio | RUS |
Аудио #03: 48 kHz, E-AC3, 5.1, 640 Kbps | Оригинал |  ENG |
Субтитры: Английские

Релиз:


[+] MI
General
Unique ID                   : 67118283133905635337526087611530807193 (0x327E82D970339C0505F243A7388B0799)
Complete name               : D:Video111We.Have.Always.Lived.in.the.Castle.2018.1080p.WEB-DL.1080p.seleZen.mkv
Format                      : Matroska
Format version              : Version 4
File size                   : 5.62 GiB
Duration                    : 1 h 35 min
Overall bit rate            : 8 449 kb/s
Movie name                  : We Have Always Lived in the Castle 2018 from селезень
Encoded date                : UTC 2019-07-05 20:25:52
Writing application         : mkvmerge v35.0.0 ('All The Love In The World') 64-bit
Writing library             : libebml v1.3.9 + libmatroska v1.5.2

Video
ID                          : 1
Format                      : AVC
Format/Info                 : Advanced Video Codec
Format profile              : High@L4
Format settings             : CABAC / 4 Ref Frames
Format settings, CABAC      : Yes
Format settings, Reference  : 4 frames
Codec ID                    : V_MPEG4/ISO/AVC
Duration                    : 1 h 35 min
Bit rate mode               : Constant
Bit rate                    : 7 232 kb/s
Nominal bit rate            : 10 000 kb/s
Width                       : 1 920 pixels
Height                      : 1 080 pixels
Display aspect ratio        : 16:9
Frame rate mode             : Constant
Frame rate                  : 24.000 FPS
Color space                 : YUV
Chroma subsampling          : 4:2:0
Bit depth                   : 8 bits
Scan type                   : Progressive
Bits/(Pixel*Frame)          : 0.145
Stream size                 : 4.81 GiB (86%)
Language                    : English
Default                     : Yes
Forced                      : No
Color range                 : Limited
Color primaries             : BT.709
Transfer characteristics    : BT.709
Matrix coefficients         : BT.709

Audio #1
ID                          : 2
Format                      : AC-3
Format/Info                 : Audio Coding 3
Commercial name             : Dolby Digital
Codec ID                    : A_AC3
Duration                    : 1 h 35 min
Bit rate mode               : Constant
Bit rate                    : 384 kb/s
Channel(s)                  : 6 channels
Channel layout              : L R C LFE Ls Rs
Sampling rate               : 48.0 kHz
Frame rate                  : 31.250 FPS (1536 SPF)
Bit depth                   : 16 bits
Compression mode            : Lossy
Stream size                 : 262 MiB (5%)
Title                       : iTunes
Language                    : Russian
Service kind                : Complete Main
Default                     : Yes
Forced                      : Yes

Audio #2
ID                          : 3
Format                      : AC-3
Format/Info                 : Audio Coding 3
Commercial name             : Dolby Digital
Codec ID                    : A_AC3
Duration                    : 1 h 35 min
Bit rate mode               : Constant
Bit rate                    : 192 kb/s
Channel(s)                  : 2 channels
Channel layout              : L R
Sampling rate               : 48.0 kHz
Frame rate                  : 31.250 FPS (1536 SPF)
Bit depth                   : 16 bits
Compression mode            : Lossy
Stream size                 : 131 MiB (2%)
Title                       : MVO [HDRezka Studio]
Language                    : Russian
Service kind                : Complete Main
Default                     : No
Forced                      : No

Audio #3
ID                          : 4
Format                      : E-AC-3
Format/Info                 : Enhanced AC-3
Commercial name             : Dolby Digital Plus
Codec ID                    : A_EAC3
Duration                    : 1 h 35 min
Bit rate mode               : Constant
Bit rate                    : 640 kb/s
Channel(s)                  : 6 channels
Channel layout              : L R C LFE Ls Rs
Sampling rate               : 48.0 kHz
Frame rate                  : 31.250 FPS (1536 SPF)
Compression mode            : Lossy
Stream size                 : 436 MiB (8%)
Title                       : Original
Language                    : English
Service kind                : Complete Main
Default                     : No
Forced                      : No

Text #1
ID                          : 5
Format                      : UTF-8
Codec ID                    : S_TEXT/UTF8
Codec ID/Info               : UTF-8 Plain Text
Duration                    : 1 h 27 min
Bit rate                    : 49 b/s
Count of elements           : 1058
Stream size                 : 31.9 KiB (0%)
Title                       : Full
Language                    : English
Default                     : No
Forced                      : No

Text #2
ID                          : 6
Format                      : UTF-8
Codec ID                    : S_TEXT/UTF8
Codec ID/Info               : UTF-8 Plain Text
Duration                    : 1 h 29 min
Bit rate                    : 54 b/s
Count of elements           : 1183
Stream size                 : 35.9 KiB (0%)
Title                       : SDH
Language                    : English
Default                     : No
Forced                      : No

Menu
00:00:00.000                : en:Chapter 01
00:06:35.542                : en:Chapter 02
00:17:02.208                : en:Chapter 03
00:26:28.583                : en:Chapter 04
00:33:25.500                : en:Chapter 05
00:40:12.375                : en:Chapter 06
00:48:23.792                : en:Chapter 07
00:53:50.375                : en:Chapter 08
01:04:50.708                : en:Chapter 09
01:09:02.292                : en:Chapter 10
01:20:15.667                : en:Chapter 11
01:28:28.292                : en:Chapter 12



Скриншоты:
[+] Всего файлов в раздаче - 1:
We.Have.Always.Lived.in.the.Castle.2018.1080p.WEB-DL.1080p.seleZen.mkv5.62 GB

Показать еще раздачи по запросу всегда:
2019-07-06 U Мы всегда жили в замке / We Have Always Lived in the Castle (2018) WEB-DLRip от MegaPeer | iTunes 1.46 GB ↑ 63 ↓ 34
2019-05-24 U Мы всегда жили в замке / We Have Always Lived in the Castle (2018) WEB-DLRip-AVC от OlLanDGroup | P 1.46 GB ↑ 147 ↓ 57
2019-05-24 U Мы всегда жили в замке / We Have Always Lived in the Castle (2018) WEB-DL 1080p | HDRezka Studio 5.36 GB ↑ 82 ↓ 47
2019-05-20 U Рохит Бхаргава - Всегда ешьте левой рукой (2017) (2018) MP3 194.04 MB ↑ 38 ↓ 4
2018-04-09 U Всегда возвращается / Vuelven (2017) WEBRip 720p | L1 1.86 GB ↑ 61 ↓ 32
2018-04-08 U Всегда возвращается / Vuelven (2017) WEBRip 720p | L1 1.03 GB ↑ 329 ↓ 69
2017-11-15 U Дед Мороз всегда звонит… трижды! (2011) DVDRip-AVC от ExKinoRay 1К1.80 GB ↑ 64 ↓ 22

Отзывы
Зарегистрируйтесь чтобы добавить комментарий.
Обратная связь
Copyleft ©