↑↓Torrent.by
Поиск
Логин: Регистрация
Пароль: Восстановить пароль
Загрузка...

Гости (2019) BDRip-AVC от New-Team

Скачать gosti-2019-bdrip-avc-ot-new-team.torrent
U Магнитная ссылка Размер: 745.79 MB Раздают: 51 Качают: 14 Добавлен: 2019-07-06 08:47:54
Гости (2019) BDRip-AVC от New-Team

Гости

«Не впускай их!»

Страна: Россия
Жанр:  триллер, ужасы, мелодрама
Год выпуска: 2019
Продолжительность: 01:27:37

Перевод: Не требуется
Субтитры: нет
Оригинальная аудиодорожка: русский

Режиссер: Евгений Абызов

В ролях: Юрий Чурсин, Ангелина Стречина, Михаил Мещеряков, Анастасия Уколова, Анар Халилов, Евгений Егоров, Марина Панферова, Иван Верховых, Мария Лисовая

Описание: Юная Катя знакомится с веселой компанией приезжих ребят, у которых есть специфическое развлечение - устраивать вечеринки в чужих пустующих домах. И Катя знает подходящее место: старинная дача на побережье, хозяин которой давно уехал. Уединенно расположенный дом, в котором в начале прошлого века был спиритический салон, кажется всем отличным вариантом. Тревожная, даже жуткая заброшенность этого места никого не отпугивает... В разгар вечеринки появляется тот, кого Катя никак не ожидала увидеть: таинственный хозяин дома... Человек, которого она любила. Человек, находящийся во власти потусторонних сил.

Релиз:

Автор рипа: stalkerok

Семпл

Качество видео: BDRip-AVC | Исходник: Guests.Das.Tor.zur.Hoelle.2019.GERMAN.DL.1080p.BluRay.AVC-iTSMEMARiO
Формат видео: MKV
Видео кодек: AVC
Аудио кодек: AAC
Видео: AVC, 1125 Кбит/сек, 960x402 (2.40:1), 23,976 кадр/сек
Аудио: AAC, 64 Кбит/сек, 48 КГц, 2.0 - русский | Blu-Ray GER
Навигация по главам: есть


[+] x264/MediaInfo


---[Information] [04.07.2019 19:17:34] x264 [info]: frame I:906   Avg QP:15.82  size: 43672
---[Information] [04.07.2019 19:17:34] x264 [info]: frame P:25534 Avg QP:19.62  size: 13336
---[Information] [04.07.2019 19:17:34] x264 [info]: frame B:99604 Avg QP:21.30  size:  3601

General
Unique ID                                : 303904140006823793822899019295009710600 (0xE4A1CEEFC775970287B490CC3CFEA208)
Complete name                            : C:tempGostiGosti.2019.BDRip.x264.Rus.stalkerok.New-Team..mkv
Format                                   : Matroska
Format version                           : Version 4
File size                                : 746 MiB
Duration                                 : 1 h 27 min
Overall bit rate                         : 1 190 kb/s
Movie name                               : Гости (2019) | Rip by stalkerok
Encoded date                             : UTC 2019-07-04 17:23:31
Writing application                      : mkvmerge v33.1.0 ('Primrose') 64-bit
Writing library                          : libebml v1.3.7 + libmatroska v1.5.0

Video
ID                                       : 1
Format                                   : AVC
Format/Info                              : Advanced Video Codec
Format profile                           : High@L4.1
Format settings                          : CABAC / 12 Ref Frames
Format settings, CABAC                   : Yes
Format settings, RefFrames               : 12 frames
Codec ID                                 : V_MPEG4/ISO/AVC
Duration                                 : 1 h 27 min
Bit rate                                 : 1 125 kb/s
Width                                    : 960 pixels
Height                                   : 402 pixels
Display aspect ratio                     : 2.40:1
Frame rate mode                          : Constant
Frame rate                               : 23.976 FPS
Color space                              : YUV
Chroma subsampling                       : 4:2:0
Bit depth                                : 8 bits
Scan type                                : Progressive
Bits/(Pixel*Frame)                       : 0.122
Stream size                              : 705 MiB (94%)
Title                                    : Гости (2019) | Rip by stalkerok
Writing library                          : x264 core 157 r2945 72db437
Encoding settings                        : cabac=1 / ref=12 / deblock=1:-2:-1 / analyse=0x3:0x133 / me=umh / subme=10 / psy=1 / psy_rd=1.00:0.00 / mixed_ref=1 / me_range=32 / chroma_me=1 / trellis=2 / 8x8dct=1 / cqm=0 / deadzone=21,11 / fast_pskip=0 / chroma_qp_offset=-2 / threads=12 / lookahead_threads=3 / sliced_threads=0 / nr=0 / decimate=0 / interlaced=0 / bluray_compat=0 / constrained_intra=0 / bframes=16 / b_pyramid=2 / b_adapt=2 / b_bias=0 / direct=3 / weightb=1 / open_gop=0 / weightp=2 / keyint=240 / keyint_min=23 / scenecut=40 / intra_refresh=0 / rc_lookahead=60 / rc=2pass / mbtree=0 / bitrate=1125 / ratetol=1.0 / qcomp=0.65 / qpmin=0 / qpmax=69 / qpstep=4 / cplxblur=20.0 / qblur=0.5 / vbv_maxrate=50000 / vbv_bufsize=62500 / nal_hrd=none / filler=0 / ip_ratio=1.40 / pb_ratio=1.30 / aq=3:0.90 / zones=121235,126043,q=34
Default                                  : Yes
Forced                                   : No

Audio
ID                                       : 2
Format                                   : AAC LC SBR
Format/Info                              : Advanced Audio Codec Low Complexity with Spectral Band Replication
Commercial name                          : HE-AAC
Format settings                          : Explicit
Codec ID                                 : A_AAC-2
Duration                                 : 1 h 27 min
Bit rate                                 : 64.0 kb/s
Channel(s)                               : 2 channels
Channel layout                           : L R
Sampling rate                            : 48.0 kHz
Frame rate                               : 23.438 FPS (2048 SPF)
Compression mode                         : Lossy
Delay relative to video                  : 31 ms
Stream size                              : 40.1 MiB (5%)
Language                                 : Russian
Default                                  : Yes
Forced                                   : No

Menu
00:00:00.000                             : de:00:00:00.000
00:07:10.096                             : de:00:07:10.096
00:14:39.837                             : de:00:14:39.837
00:20:55.463                             : de:00:20:55.463
00:26:52.110                             : de:00:26:52.110
00:33:16.745                             : de:00:33:16.745
00:39:48.094                             : de:00:39:48.094
00:44:53.107                             : de:00:44:53.107
00:53:08.310                             : de:00:53:08.310
01:00:05.519                             : de:01:00:05.519
01:08:40.742                             : de:01:08:40.742
01:18:41.258                             : de:01:18:41.258




Скриншоты:
[+] Всего файлов в раздаче - 1:
Gosti.2019.BDRip.x264.Rus.stalkerok.New-Team..mkv745.79 MB

Похожие раздачи по запросу - гости:
2019-07-24 U Гости (2019) BDRip 1080p | Лицензия 6.56 GB ↑ 47 ↓ 5
2019-07-04 U Гости (2019) BDRip-AVC от New-Team 1.46 GB ↑ 239 ↓ 72
2019-07-04 U Гости (2018) BDRip | Лицензия 1.45 GB ↑ 291 ↓ 62
2019-04-29 U Гости (2018) WEB-DL 1080p | iTunes 2.91 GB ↑ 231 ↓ 142

Отзывы
Зарегистрируйтесь чтобы добавить комментарий.
Обратная связь
Copyleft ©