↑↓Torrent.by
Поиск
Логин: Регистрация
Пароль: Восстановить пароль
Загрузка...

Общество / The Society [S01] (2019) WEB-DLRip | Пифагор

Скачать obschestvo-the-society-s01-2019-web-dlrip-pifagor.torrent
U Магнитная ссылка Размер: 7.61 GB Раздают: 58 Качают: 29 Добавлен: 2019-07-06 11:08:04
Общество / The Society [S01] (2019) WEB-DLRip | Пифагор

Общество / The Society

Страна: США
Производство: NetFlix
Год выпуска: 2019
Жанр:  драма, фантастика
Продолжительность: 10х ~00:59:00

Режиссеры: Марк Уэбб, Хайфа Аль-Мансур, Патрисия Кардосо
Авторы сценария: Кристофер Кейзер, Ки Нгуйен, Анна Фишко
В ролях: Кэтрин Ньютон, Гидеон Адлон, Шон Берди, Наташа Лю Бордиццо, Жак Колимон, Оливия ДеДжонг, Алекс Фитцалан, Кристин Фросет, Хосе Джулиан

Описание: Группа подростков оказывается в копии их города, где нет взрослых...

Перевод: Профессиональный (полное дублирование) | Пифагор
Субтитры: отдельными файлами / русские (forced + full), английские (SDH)

Качество: WEB-DLRip
Формат: AVI
Видео кодек: XviD
Аудио кодек: АС3
Видео: 704x368 (1.913), 23.976 fps, XviD build 73 ~1 529 kbps avg
Аудио №1: 48.0 kHz, AC3 Dolby Digital, 2/0 (L,R) ch, ~192 kbps | RUS
Аудио №2: 48.0 kHz, AC3 Dolby Digital, 2/0 (L,R) ch, ~192 kbps | ENG
Формат субтитров: *SRT

Дата премьеры (мир): 10 мая 2019

Релиз от: Pigy


[+] Media Info
General
Complete name : The.Society.s01e01.WEB-DLRip.avi
Format : AVI
Format/Info : Audio Video Interleave
File size : 806 MiB
Duration : 58 min 27 s
Overall bit rate : 1 928 kb/s
Writing application : VirtualDubMod 1.5.10.3 | (build 2550/release)
Writing library : VirtualDubMod build 2550/release

Video
ID : 0
Format : MPEG-4 Visual
Format profile : Advanced Simple@L5
Format settings : BVOP1
Format settings, BVOP : 1
Format settings, QPel : No
Format settings, GMC : No warppoints
Format settings, Matrix : Default (MPEG)
Codec ID : XVID
Codec ID/Hint : XviD
Duration : 58 min 27 s
Bit rate : 1 529 kb/s
Width : 704 pixels
Height : 368 pixels
Display aspect ratio : 1.913
Frame rate : 23.976 (24000/1001) FPS
Color space : YUV
Chroma subsampling : 4:2:0
Bit depth : 8 bits
Scan type : Progressive
Compression mode : Lossy
Bits/(Pixel*Frame) : 0.246
Stream size : 640 MiB (79%)
Writing library : XviD 73

Audio #1
ID : 1
Format : AC-3
Format/Info : Audio Coding 3
Codec ID : 2000
Duration : 58 min 27 s
Bit rate mode : Constant
Bit rate : 192 kb/s
Channel(s) : 2 channels
Channel positions : Front: L R
Sampling rate : 48.0 kHz
Frame rate : 31.250 FPS (1536 SPF)
Bit depth : 16 bits
Compression mode : Lossy
Stream size : 80.3 MiB (10%)
Alignment : Split accross interleaves
Interleave, duration : 42 ms (1.00 video frame)
Interleave, preload duratio : 500 ms
Service kind : Complete Main

Audio #2
ID : 2
Format : AC-3
Format/Info : Audio Coding 3
Codec ID : 2000
Duration : 58 min 27 s
Bit rate mode : Constant
Bit rate : 192 kb/s
Channel(s) : 2 channels
Channel positions : Front: L R
Sampling rate : 48.0 kHz
Frame rate : 31.250 FPS (1536 SPF)
Bit depth : 16 bits
Compression mode : Lossy
Stream size : 80.3 MiB (10%)
Alignment : Split accross interleaves
Interleave, duration : 42 ms (1.00 video frame)
Interleave, preload duratio : 500 ms
Service kind : Complete Main



Скриншоты:
[+] Всего файлов в раздаче - 40:
Eng/The.Society.s01e01.WEB-DLRip.eng.srt62.23 kB
Eng/The.Society.s01e02.WEB-DLRip.eng.srt63.54 kB
Eng/The.Society.s01e03.WEB-DLRip.eng.srt60.97 kB
Eng/The.Society.s01e04.WEB-DLRip.eng.srt57.87 kB
Eng/The.Society.s01e05.WEB-DLRip.eng.srt59.20 kB
Eng/The.Society.s01e06.WEB-DLRip.eng.srt45.02 kB
Eng/The.Society.s01e07.WEB-DLRip.eng.srt54.83 kB
Eng/The.Society.s01e08.WEB-DLRip.eng.srt56.44 kB
Eng/The.Society.s01e09.WEB-DLRip.eng.srt66.69 kB
Eng/The.Society.s01e10.WEB-DLRip.eng.srt64.14 kB
Rus/The.Society.s01e01.WEB-DLRip.rus.srt63.81 kB
Rus/The.Society.s01e02.WEB-DLRip.rus.srt65.47 kB
Rus/The.Society.s01e03.WEB-DLRip.rus.srt60.86 kB
Rus/The.Society.s01e04.WEB-DLRip.rus.srt59.53 kB
Rus/The.Society.s01e05.WEB-DLRip.rus.srt64.65 kB
Rus/The.Society.s01e06.WEB-DLRip.rus.srt54.17 kB
Rus/The.Society.s01e07.WEB-DLRip.rus.srt64.09 kB
Rus/The.Society.s01e08.WEB-DLRip.rus.srt65.33 kB
Rus/The.Society.s01e09.WEB-DLRip.rus.srt78.45 kB
Rus/The.Society.s01e10.WEB-DLRip.rus.srt75.18 kB
The.Society.s01e01.WEB-DLRip.avi806.16 MB
The.Society.s01e01.WEB-DLRip.srt1.67 kB
The.Society.s01e02.WEB-DLRip.avi811.73 MB
The.Society.s01e02.WEB-DLRip.srt2.95 kB
The.Society.s01e03.WEB-DLRip.avi843.82 MB
The.Society.s01e03.WEB-DLRip.srt6.17 kB
The.Society.s01e04.WEB-DLRip.avi783.60 MB
The.Society.s01e04.WEB-DLRip.srt2.77 kB
The.Society.s01e05.WEB-DLRip.avi739.21 MB
The.Society.s01e05.WEB-DLRip.srt190.00 B
The.Society.s01e06.WEB-DLRip.avi664.72 MB
The.Society.s01e06.WEB-DLRip.srt1.81 kB
The.Society.s01e07.WEB-DLRip.avi742.28 MB
The.Society.s01e07.WEB-DLRip.srt3.25 kB
The.Society.s01e08.WEB-DLRip.avi730.86 MB
The.Society.s01e08.WEB-DLRip.srt3.33 kB
The.Society.s01e09.WEB-DLRip.avi839.85 MB
The.Society.s01e09.WEB-DLRip.srt3.79 kB
The.Society.s01e10.WEB-DLRip.avi826.30 MB
The.Society.s01e10.WEB-DLRip.srt2.62 kB

Показать еще раздачи по запросу общество:
2019-05-02 U Высшее общество / High Life (2018) BDRip 1080p от селезень | iTunes 10.79 GB ↑ 354 ↓ 180
2018-04-25 U Высшее общество / High Society (2017) HDRip | GreenРай Studio 1.37 GB ↑ 86 ↓ 24
2017-07-22 U Общество Курион 3. Вор Жизни. Коллекционное издание (2016) PC 1.45 GB ↑ 59 ↓ 15
2016-11-10 U Антикварное общество: Затмение над Месиной. Коллекционное издание (2016) PC 1.44 GB ↑ 366 ↓ 53
2016-11-06 U Бойня в сестринстве / Женское общество. Скотобойня / Sorority Slaughterhouse (2016) HDRip| L1 1.46 GB ↑ 260 ↓ 103
2016-02-26 U Тайное общество Супилинна / Supilinna Salaselts (2015) WEB-DLRip | D 1.45 GB ↑ 257 ↓ 83
2013-11-05 U Общество мертвых поэтов / Dead Poets Society (1989) HDRip от New-team 1.46 GB ↑ 777 ↓ 11

Отзывы
Зарегистрируйтесь чтобы добавить комментарий.
Обратная связь
Copyleft ©