↑↓Torrent.by
Поиск
Логин: Регистрация
Пароль: Восстановить пароль
Загрузка...

Ричард прощается / Во всё тяжкое / The Professor (2018) BDRip-AVC от OlLanDGroup | P

Скачать richard-proschaetsya-vo-vse-tyazhkoe-the-professor-2018-bdrip-avc-ot-ollandgroup-p.torrent
U Магнитная ссылка Размер: 1.72 GB Раздают: 38 Качают: 9 Добавлен: 2019-07-06 11:08:13
Ричард прощается / Во всё тяжкое / The Professor (2018) BDRip-AVC от OlLanDGroup | P

Ричард прощается / Во всё тяжкое / The Professor
«Save your best lesson for last»

Год выпуска: 2018
Страна: США
Производство: Global Road Entertainment, Automatik, Leeding Media
Жанр:  Драма, комедия

Режиссёр: Уэйн Робертс
В ролях: Джонни Депп, Зои Дойч, Розмари ДеУитт, Дэнни Хьюстон, Палома Квиатковски, Шиван Фэллон, Кейтлин Бернард, Фэрра Авива, Робин Брэдли, Кит МакКекни, Рон Ливингстон, Джастин Уоррингтон, Одесса Янг

Перевод: Профессиональный многоголосый | [HDRezka Studio]
Субтитры: Русские, Английские
Реклама: Отсутствует

Описание: Ричард — профессор университета, который неожиданно узнает о том, что умирает от неизлечимой болезни. Он всегда жил по совести, ходил на работу, платил налоги, однако это никогда не приносило ему морального удовлетворения. И теперь Ричард решает провести последние дни в свое удовольствие. Понимая, что ему больше нечего терять, он начинает делать все то, что никогда бы не сделал раньше: посещает шумные вечеринки, заводит случайные связи, употребляет наркотики, появляется на работе пьяным и пытается наверстать упущенное...

Качество: BDRip-AVC | BluRay Disc | The.Professor.2018.COMPLETE.BLURAY-DiSRUPTION
Продолжительность: 01:31:38

Формат: MKV
Видео кодек: MPEG-4 AVC
Аудио кодек: AC3
Видео: 1024x554 (1.85:1), 23,976 fps, x264 ~2 045 kbps avg, 0.150 bit/pixel
Аудио #1: 48 kHz, AC3 Dolby Digital, 2 (L,R) ch, ~192.00 kbps avg | RUS (HDRezka Studio)
Аудио #2: 48 kHz, AC3 Dolby Digital, 3/2 (L,C,R,l,r) + LFE ch, ~448.00 kbps avg | ENG

Дата премьеры (мир): 5 октября 2018
Дата премьеры (РФ): 25 июля 2019, «Экспонента»
Цифровой релиз:

Релиз:


[+] MediaInfo

Общее
Уникальный идентификатор                 : 77235582271868086253756146300922473594 (0x3A1B08358A459BC37F4C31CE2449AC7A)
Полное имя                               : F:OlLanDGroupThe.Professor.2018.BDRip(AVC).OlLanDGroup.mkv
Формат                                   : Matroska
Версия формата                           : Version 4 / Version 2
Размер файла                             : 1,72 Гбайт
Продолжительность                        : 1 ч. 31 м.
Общий поток                              : 2688 Кбит/сек
Название фильма                          : The.Professor.2018   #TorpedoUK#
Дата кодирования                         : UTC 2019-07-06 02:15:43
Программа кодирования                    : mkvmerge v29.0.0 ('Like It Or Not') 64-bit
Библиотека кодирования                   : libebml v1.3.6 + libmatroska v1.4.9

Видео
Идентификатор                            : 1
Формат                                   : AVC
Формат/Информация                        : Advanced Video Codec
Профиль формата                          : High@L4.1
Параметр CABAC формата                   : Да
Параметр ReFrames формата                : 10 кадров
Идентификатор кодека                     : V_MPEG4/ISO/AVC
Продолжительность                        : 1 ч. 31 м.
Битрейт                                  : 2045 Кбит/сек
Ширина                                   : 1024 пикселя
Высота                                   : 554 пикселя
Соотношение сторон                       : 1,85:1
Режим частоты кадров                     : Постоянный
Частота кадров                           : 23,976 (24000/1001) кадра/сек
Цветовое пространство                    : YUV
Субдискретизация насыщенности            : 4:2:0
Битовая глубина                          : 8 бит
Тип развёртки                            : Прогрессивная
Бит/(Пиксели*Кадры)                      : 0.150
Размер потока                            : 1,31 Гбайт (76%)
Библиотека кодирования                   : x264 core 146 r2538 121396c
Настройки программы                      : cabac=1 / ref=10 / deblock=1:-3:-3 / analyse=0x3:0x113 / me=umh / subme=11 / psy=1 / psy_rd=0.98:0.04 / mixed_ref=1 / me_range=48 / chroma_me=1 / trellis=2 / 8x8dct=1 / cqm=0 / deadzone=21,11 / fast_pskip=1 / chroma_qp_offset=-3 / threads=6 / lookahead_threads=1 / sliced_threads=0 / nr=0 / decimate=1 / interlaced=0 / bluray_compat=0 / constrained_intra=0 / bframes=11 / b_pyramid=2 / b_adapt=2 / b_bias=0 / direct=3 / weightb=1 / open_gop=0 / weightp=2 / keyint=240 / keyint_min=23 / scenecut=40 / intra_refresh=0 / rc_lookahead=40 / rc=2pass / mbtree=0 / bitrate=2045 / ratetol=1.0 / qcomp=0.60 / qpmin=0 / qpmax=69 / qpstep=4 / cplxblur=20.0 / qblur=0.5 / vbv_maxrate=50000 / vbv_bufsize=62500 / nal_hrd=none / filler=0 / ip_ratio=1.40 / pb_ratio=1.30 / aq=1:1.00
Язык                                     : English
Default                                  : Да
Forced                                   : Нет

Аудио #1
Идентификатор                            : 2
Формат                                   : AC-3
Формат/Информация                        : Audio Coding 3
Расширение режима                        : CM (complete main)
Параметр Endianness формата              : Big
Идентификатор кодека                     : A_AC3
Продолжительность                        : 1 ч. 31 м.
Вид битрейта                             : Постоянный
Битрейт                                  : 192 Кбит/сек
Каналы                                   : 2 канала
Расположение каналов                     : Front: L R
Частота                                  : 48,0 КГц
Частота кадров                           : 31,250 кадров/сек (1536 spf)
Битовая глубина                          : 16 бит
Метод сжатия                             : С потерями
Размер потока                            : 126 Мбайт (7%)
Заголовок                                : MVO [HDRezka Studio]
Язык                                     : Russian
Default                                  : Да
Forced                                   : Нет

Аудио #2
Идентификатор                            : 3
Формат                                   : AC-3
Формат/Информация                        : Audio Coding 3
Расширение режима                        : CM (complete main)
Параметр Endianness формата              : Big
Идентификатор кодека                     : A_AC3
Продолжительность                        : 1 ч. 31 м.
Вид битрейта                             : Постоянный
Битрейт                                  : 448 Кбит/сек
Каналы                                   : 6 каналов
Расположение каналов                     : Front: L C R, Side: L R, LFE
Частота                                  : 48,0 КГц
Частота кадров                           : 31,250 кадров/сек (1536 spf)
Битовая глубина                          : 16 бит
Метод сжатия                             : С потерями
Размер потока                            : 294 Мбайт (17%)
Заголовок                                : [Original]
Язык                                     : English
Default                                  : Нет
Forced                                   : Нет

Текст #1
Идентификатор                            : 4
Формат                                   : UTF-8
Идентификатор кодека                     : S_TEXT/UTF8
Идентификатор кодека/Информация          : UTF-8 Plain Text
Продолжительность                        : 1 ч. 25 м.
Битрейт                                  : 95 бит/сек
Count of elements                        : 1366
Размер потока                            : 60,2 Кбайт (0%)
Заголовок                                : Full
Язык                                     : Russian
Default                                  : Нет
Forced                                   : Нет

Текст #2
Идентификатор                            : 5
Формат                                   : UTF-8
Идентификатор кодека                     : S_TEXT/UTF8
Идентификатор кодека/Информация          : UTF-8 Plain Text
Продолжительность                        : 1 ч. 27 м.
Битрейт                                  : 63 бит/сек
Count of elements                        : 1417
Размер потока                            : 40,7 Кбайт (0%)
Заголовок                                : Full
Язык                                     : English
Default                                  : Нет
Forced                                   : Нет

Меню
00:00:00.000                             : :Глава 01
00:05:26.993                             : :Глава 02
00:09:19.100                             : :Глава 03
00:14:21.110                             : :Глава 04
00:23:02.130                             : :Глава 05
00:29:52.791                             : :Глава 06
00:34:16.471                             : :Глава 07
00:40:27.883                             : :Глава 08
00:45:19.925                             : :Глава 09
00:51:29.211                             : :Глава 10
00:54:27.931                             : :Глава 11
00:57:48.256                             : :Глава 12
01:02:55.897                             : :Глава 13
01:09:05.349                             : :Глава 14
01:16:59.239                             : :Глава 15
01:23:55.655                             : :Глава 16



Скриншоты:
[+] Всего файлов в раздаче - 1:
The.Professor.2018.BDRip(AVC).OlLanDGroup.mkv1.72 GB

Показать еще раздачи по запросу ричард:
2019-05-07 U Мартин Джордж Рэймонд Ричард - Собрание произведений (1967-2019) FB2 72.37 MB ↑ 70 ↓ 11
2019-02-15 U Ричард Львиное Сердце (1992) DVDRip-AVC от KORSAR 1К1.75 GB ↑ 156 ↓ 9
2018-12-13 U Ричард Морган - Черный человек (2018) MP3 1.47 GB ↑ 62 ↓ 12
2018-08-22 U Ричард О'Коннор - Психология вредных привычек (2015) PDF, FB2 4.74 MB ↑ 143 ↓ 27
2018-06-05 U Ричард Матесон - Сборник произведений (1961-2018) FB2 23.72 MB ↑ 451 ↓ 23
2018-03-03 U Нил Деграсс Тайсон, Дж. Ричард Готт, Майкл А. Стросс - Большое космическое путешествие (2018) FB2 15.35 MB ↑ 434 ↓ 10
2017-08-17 U Ричард Питер Джонсон / Richard Peter Johnson (2015) WEB-DLRip | L 1.36 GB ↑ 60 ↓ 22

Отзывы
Зарегистрируйтесь чтобы добавить комментарий.
Обратная связь
Copyleft ©