↑↓Torrent.by
Поиск
Логин: Регистрация
Пароль: Восстановить пароль
Загрузка...

Секретный агент / Unlocked (2016) BDRip-HEVC 1080p | D | RUS-Transfer | Лицензия

Скачать sekretnyy-agent-unlocked-2016-bdrip-hevc-1080p-d-rus-transfer-licenziya.torrent
U Магнитная ссылка Размер: 4.92 GB Раздают: 41 Качают: 24 Добавлен: 2019-07-06 11:08:28
Секретный агент / Unlocked (2016) BDRip-HEVC 1080p | D | RUS-Transfer | Лицензия

Название: Секретный агент
Оригинальное название: Unlocked
Год выхода: 2016
Жанр: боевик, триллер, драма, детектив
Режиссер: Майкл Аптед
В ролях: Нуми Рапас, Орландо Блум, Тони Коллетт, Джон Малкович, Майкл Дуглас, Мэттью Марш, Макрам Хури, Брайан Каспе, Филип Броди, Тосин Коул

О фильме: Она — секретный агент мирового уровня. На этот раз ее задача — предотвратить биологическую атаку на Лондон. Вовлеченная в большую шпионскую игру, она неизбежно сталкивается с миром двойных стандартов, паранойи, безнаказанности и предательства. Вокруг так много друзей, но кому из них на самом деле можно доверять? И кто из них тот неуловимый «крот», которого она должна вычислить, чтобы остановить террористов? Чтобы спасти Лондон, ей самой придется играть не по правилам…

Страна: Чехия, Швейцария, Великобритания, США
Студия: Bloom, Czech Anglo Productions, Di Bonaventura Pictures, Silver Reel, Unlocked Distribution
Продолжительность: 01:37:58
Перевод: дублированный

Качество: BDRip-HEVC 1080p
Кодек: HEVC (x265)
Видео: 1920x804 (2,40:1), 5910 кбит/сек, 0.160 бит/(Пиксели*Кадры), 23.976 (24000/1001) кадр/сек, HEVC (Main10@L.4.1@High) 10 бит
Звук:
Аудио1: AC3, 6 ch, 640 Kbps - русский Дублированный (Лицензия)
Аудио2: AC3, 6 ch, 640 Kbps - english Original
Субтитры: Русские полные (SRT)
Навигация по главам: Есть

Автор: OldGamer


[+] Mediainfo
x265 info: frame I: 590, Avg QP:17.00 kb/s: 16261.91
x265 info: frame P: 27007, Avg QP:19.22 kb/s: 10649.25
x265 info: frame B: 113495, Avg QP:20.08 kb/s: 4727.75
x265 info: Weighted P-Frames: Y:6.2% UV:4.4%
x265 info: Weighted B-Frames: Y:4.4% UV:3.1%
x265 info: consecutive B-frames: 8.1% 6.2% 6.4% 28.0% 10.3% 16.3% 8.5% 7.5% 3.7% 2.1% 0.9% 0.6% 0.8% 0.3% 0.3%
x265 info: encoded 141092 frames in 176580.56s (0.80 fps), 5909.44 kb/s, Avg QP:19.90

Формат : Matroska
Версия формата : Version 4
Размер файла : 4,92 Гбайт
Продолжительность : 1 ч. 37 м.
Общий поток : 7193 Кбит/сек
Название фильма : Секретный агент
Описание : Она — секретный агент мирового уровня. На этот раз ее задача — предотвратить биологическую атаку на Лондон. Вовлеченная в большую шпионскую игру, она неизбежно сталкивается с миром двойных стандартов, паранойи, безнаказанности и предательства. Вокруг так много друзей, но кому из них на самом деле можно доверять? И кто из них тот неуловимый «крот», которого она должна вычислить, чтобы остановить террористов? Чтобы спасти Лондон, ей самой придется играть не по правилам…
Дата кодирования : UTC 2019-07-05 18:17:36
Программа кодирования : mkvmerge v35.0.0 ('All The Love In The World') 64-bit
Библиотека кодирования : libebml v1.3.9 + libmatroska v1.5.2 / Lavf57.71.100
Примечание : Rip by OldGamer
Attachments : poster.jpg / backdrop.jpg
ACTORS : Noomi Rapace, Orlando Bloom, Michael Douglas, Toni Collette, John Malkovich, Philip Brodie, Matthew Marsh, Brian Caspe, Aymen Hamdouchi, Adelayo Adedayo, Jessica Boone, Raffaello Degruttola, David Bowles, Dan Bradford, Michael Epp, Tom Reed, Begum Burian, Akshay Kumar, Makram Khoury, Adam Horton, Kevin Shen, Rami Nasr, Tosin Cole, Jim High, Michael Pitthan, Kendrick Roger Ong, Emilio Aniba, Lee Nicholas Harris, Mohammed Ali, Kim-Anh Le-Pham
COUNTRY : United Kingdom, Czech Republic, United States, Switzerland
DATE : 2017-04-27
DIRECTOR : Michael Apted
ENCODING_INFO : MATROSKA,WEBM > MKV / H264 > X265 CRF 19.5 Very Slow / DTS-HD MA > AC3 CBR 864kbps / DTS > AC3 CBR 864kbps / DTS-HD MA > AC3 CBR 864kbps / DTS > AC3 CBR 864kbps
GENRE : Боевик, Триллер
HD_VIDEO : 1
ITUNEXTC : 15, 15
Язык : und
MEDIA_TYPE : 9
ORIGINAL_TITLE : Unlocked
PRODUCER : Claudia Bluemhuber, Lorenzo Di Bonaventura, Erik Howsam, Georgina Townsley
PUBLISHER : Silver Reel, Di Bonaventura Pictures, Lipsync Productions, Czech Anglo Productions, Bloom, SRA Productions, Unlocked Distribution
RATING : 6.20

Видео
Идентификатор : 1
Формат : HEVC
Формат/Информация : High Efficiency Video Coding
Профиль формата : Main 10@L4.1@High
Идентификатор кодека : V_MPEGH/ISO/HEVC
Продолжительность : 1 ч. 37 м.
Битрейт : 5910 Кбит/сек
Ширина : 1920 пикселей
Высота : 804 пикселя
Соотношение сторон : 2,40:1
Режим частоты кадров : Постоянный
Частота кадров : 24,000 кадра/сек
Цветовое пространство : YUV
Субдискретизация насыщенности : 4:2:0
Битовая глубина : 10 бит
Бит/(Пиксели*Кадры) : 0.160
Размер потока : 4,04 Гбайт (82%)
Библиотека кодирования : x265 2.9+9-f74003e88622:[Mac OS X][clang 10.0.0][64 bit] 10bit
Настройки программы : cpuid=1111039 / frame-threads=14 / wpp / no-pmode / no-pme / no-psnr / no-ssim / log-level=3 / input-csp=1 / input-res=1920x804 / interlace=0 / total-frames=0 / level-idc=41 / high-tier=1 / uhd-bd=0 / ref=5 / allow-non-conformance / no-repeat-headers / annexb / no-aud / no-hrd / info / hash=0 / no-temporal-layers / open-gop / min-keyint=23 / keyint=240 / gop-lookahead=0 / bframes=14 / b-adapt=2 / b-pyramid / bframe-bias=0 / rc-lookahead=60 / lookahead-slices=5 / scenecut=40 / radl=0 / no-intra-refresh / ctu=64 / min-cu-size=8 / rect / amp / max-tu-size=32 / tu-inter-depth=4 / tu-intra-depth=4 / limit-tu=1 / rdoq-level=2 / dynamic-rd=0.00 / no-ssim-rd / signhide / no-tskip / nr-intra=0 / nr-inter=0 / no-constrained-intra / no-strong-intra-smoothing / max-merge=5 / limit-refs=2 / no-limit-modes / me=3 / subme=7 / merange=57 / temporal-mvp / weightp / weightb / no-analyze-src-pics / deblock=-3:-3 / no-sao / no-sao-non-deblock / rd=6 / no-early-skip / rskip / no-fast-intra / no-tskip-fast / no-cu-lossless / no-b-intra / no-splitrd-skip / rdpenalty=0 / psy-rd=2.00 / psy-rdoq=1.00 / no-rd-refine / no-lossless / cbqpoffs=0 / crqpoffs=0 / rc=crf / crf=19.5 / qcomp=0.67 / qpstep=4 / stats-write=0 / stats-read=0 / vbv-maxrate=50000 / vbv-bufsize=50000 / vbv-init=0.9 / crf-max=0.0 / crf-min=0.0 / ipratio=1.40 / pbratio=1.30 / aq-mode=3 / aq-strength=0.80 / no-cutree / zone-count=1 / zones: / start-frame=132379 / end-frame=141084 / qp=35 / no-strict-cbr / qg-size=32 / no-rc-grain / qpmax=69 / qpmin=0 / no-const-vbv / sar=1 / overscan=0 / videoformat=5 / range=0 / colorprim=2 / transfer=2 / colormatrix=2 / chromaloc=0 / display-window=0 / max-cll=0,0 / min-luma=0 / max-luma=1023 / log2-max-poc-lsb=8 / vui-timing-info / vui-hrd-info / slices=1 / no-opt-qp-pps / no-opt-ref-list-length-pps / no-multi-pass-opt-rps / scenecut-bias=0.00 / no-opt-cu-delta-qp / aq-motion / no-hdr / no-hdr-opt / no-dhdr10-opt / no-idr-recovery-sei / analysis-reuse-level=5 / scale-factor=0 / refine-intra=0 / refine-inter=0 / refine-mv=0 / no-limit-sao / ctu-info=0 / no-lowpass-dct / refine-mv-type=0 / copy-pic=1 / max-ausize-factor=1.0 / no-dynamic-refine / no-single-sei
Язык : English
Default : Да
Forced : Нет
Цветовой диапазон : Limited

Аудио #1
Идентификатор : 2
Формат : AC-3
Формат/Информация : Audio Coding 3
Коммерческое название : Dolby Digital
Идентификатор кодека : A_AC3
Продолжительность : 1 ч. 37 м.
Вид битрейта : Постоянный
Битрейт : 640 Кбит/сек
Каналы : 6 каналов
Channel layout : L R C LFE Ls Rs
Частота : 48,0 КГц
Частота кадров : 31,250 кадров/сек (1536 SPF)
Битовая глубина : 16 бит
Метод сжатия : С потерями
Размер потока : 449 Мбайт (9%)
Заголовок : Дублированный
Язык : Russian
ServiceKind/ : Complete Main
Default : Да
Forced : Нет

Аудио #2
Идентификатор : 3
Формат : AC-3
Формат/Информация : Audio Coding 3
Коммерческое название : Dolby Digital
Идентификатор кодека : A_AC3
Продолжительность : 1 ч. 37 м.
Вид битрейта : Постоянный
Битрейт : 640 Кбит/сек
Каналы : 6 каналов
Channel layout : L R C LFE Ls Rs
Частота : 48,0 КГц
Частота кадров : 31,250 кадров/сек (1536 SPF)
Битовая глубина : 16 бит
Метод сжатия : С потерями
Размер потока : 449 Мбайт (9%)
Заголовок : Original
Язык : English
ServiceKind/ : Complete Main
Default : Нет
Forced : Нет

Текст
Идентификатор : 4
Формат : UTF-8
Идентификатор кодека : S_TEXT/UTF8
Идентификатор кодека/Информация : UTF-8 Plain Text
Продолжительность : 1 ч. 30 м.
Битрейт : 82 бит/сек
ElementCount : 1124
Размер потока : 55,0 Кбайт (0%)
Язык : Russian
Default : Нет
Forced : Нет

Меню
00:00:00.000 : :Chapter 01
00:00:58.041 : :Chapter 02
00:11:40.000 : :Chapter 03
00:21:20.208 : :Chapter 04
00:33:22.958 : :Chapter 05
00:46:37.875 : :Chapter 06
00:56:23.208 : :Chapter 07
01:08:40.791 : :Chapter 08
01:21:48.083 : :Chapter 09



Скриншоты:
[+] Всего файлов в раздаче - 1:
Секретный.агент.Unlocked.2016.BDRip-HEVC.1080p.RUS-Transfer.mkv4.92 GB

Показать еще раздачи по запросу секретный:
2017-09-18 U Секретный агент / Unlocked (2017) BDRip от HQ-ViDEO | Лицензия 1.45 GB ↑ 133 ↓ 48
2017-09-15 U Секретный агент / Unlocked (2017) BDRip от ExKinoRay | Лицензия 1.46 GB ↑ 224 ↓ 57
2017-09-14 U Секретный агент / Unlocked (2017) BDRip 720p от HELLYWOOD | Лицензия 3.99 GB ↑ 191 ↓ 72
2017-09-14 U Секретный агент / Unlocked (2017) BDRip-AVC от HELLYWOOD | Лицензия 2.16 GB ↑ 422 ↓ 55
2017-09-14 U Секретный агент / Unlocked (2017) BDRip 720p от ExKinoRay | Лицензия 1К5.44 GB ↑ 227 ↓ 93
2017-09-14 U Секретный агент / Unlocked (2017) BDRip 1080p от ExKinoRay | Лицензия 11.27 GB ↑ 95 ↓ 121
2017-09-14 U Секретный агент / Unlocked (2017) BDRip-AVC от ExKinoRay | Лицензия 1К1.44 GB ↑ 136 ↓ 69

Отзывы
Зарегистрируйтесь чтобы добавить комментарий.
Обратная связь
Copyleft ©