↑↓Torrent.by
Поиск
Логин: Регистрация
Пароль: Восстановить пароль
Загрузка...

Железное небо 2: Грядущая раса / Iron Sky: The Coming Race (2019) BDRip-AVC | P, A

Скачать zheleznoe-nebo-2-gryaduschaya-rasa-iron-sky-the-coming-race-2019-bdrip-avc-p-a.torrent
U Магнитная ссылка Размер: 3.01 GB Раздают: 59 Качают: 22 Добавлен: 2019-07-06 11:08:37
Железное небо 2: Грядущая раса / Iron Sky: The Coming Race (2019) BDRip-AVC | P, A

Название: Железное небо 2: Грядущая раса
Оригинальное название: Iron Sky: The Coming Race
Год выхода: 2019
Жанр:  Фантастика, боевик, комедия, приключения
Режиссер: Тимо Вуоренсола
В ролях: Лара Росси, Владимир Бурлаков, Кит Дэйл, Том Грин, Юлия Дитце, Эдвард Джадж, Мартин Сваби, Эмили Атак, Удо Кир, Джон Фландерс

О фильме:
Спустя 20 лет после событий первого фильма остатки человечества вынуждены переселиться на ту самую базу, основанную в 1945 году сбежавшими нацистами на тёмной стороне Луны — жизнь на планете Земля погибла после разрушительной ядерной войны. Но в пустыне, лежащей посреди ядерной зимы, имеется секрет, касающийся появления человеческой расы, и этот секрет способен возродить былое величие людей или навеки похоронить их надежды на возвращение домой. Отряд людей во главе с отважной Оби Вашингтон отправится на Землю, чтобы бросить вызов армии рептилий Врила — древней космической расы, которая захватила половину галактики и Землю в том числе.

Страна: Финляндия, Германия, Бельгия
Студия: Iron Sky Universe, 27 Films Production, Potemkino
Продолжительность: 01:32:45
Перевод: Профессиональный (многоголосый, закадровый) | HDRezka Studio + Авторский (одноголосый, закадровый) Д.Есарев
Субтитры: Русские (форс., полные), английские (полные, SDH)

Файл
Формат: Matroska
Качество: BDRip-AVC [BluRay.REMUX.1080p]
Видео: x264, ~3296 Kбит/с, 1118x468, 23.976 кадр/с
Аудио 1: 48 kHz, AC3, 6 ch, ~448 Kbps | RUS | MVO
Аудио 2: 48 kHz, AC3, 6 ch, ~448 Kbps | RUS | AVO
Аудио 3: 48 kHz, AC3, 6 ch, ~448 Kbps | ENG |

***Релиз от: -=DoMiNo=-


[+] M/I
x264 info: frame I:989   Avg QP:15.68  size: 81051
x264 info: frame P:30144 Avg QP:17.23  size: 33435
x264 info: frame B:102299 Avg QP:19.69  size: 11777
x264 info: consecutive B-frames:  1.9%  5.6%  7.3% 21.2% 18.7% 36.3%  4.6%  1.1%  1.1%  0.5%  0.4%  0.5%  0.9%

General
Unique ID                   : 188023783988337026665085574264813818340 (0x8D7410470ABAC7562CDCA11DA82891E4)
Complete name               : Железное небо 2.(2019).BDRip-AVC.[-=DoMiNo=-].mkv
Format                      : Matroska
Format version              : Version 4
File size                   : 3.01 GiB
Duration                    : 1 h 32 min
Overall bit rate            : 4 643 kb/s
Movie name                  : Железное небо 2: Грядущая раса / Iron Sky: The Coming Race (2019)
Encoded date                : UTC 2019-07-05 20:27:19
Writing application         : mkvmerge v35.0.0 ('All The Love In The World') 64-bit
Writing library             : libebml v1.3.9 + libmatroska v1.5.2
Attachments                 : poster.jpg / poster 2.jpg

Video
ID                          : 1
Format                      : AVC
Format/Info                 : Advanced Video Codec
Format profile              : High@L4.1
Format settings             : CABAC / 15 Ref Frames
Format settings, CABAC      : Yes
Format settings, Reference  : 15 frames
Codec ID                    : V_MPEG4/ISO/AVC
Duration                    : 1 h 32 min
Bit rate                    : 3 296 kb/s
Width                       : 1 118 pixels
Height                      : 468 pixels
Display aspect ratio        : 2.40:1
Frame rate mode             : Constant
Frame rate                  : 23.976 (24000/1001) FPS
Color space                 : YUV
Chroma subsampling          : 4:2:0
Bit depth                   : 8 bits
Scan type                   : Progressive
Bits/(Pixel*Frame)          : 0.263
Stream size                 : 2.14 GiB (71%)
Title                       : RIP_BY_-=DoMiNo=-
Writing library             : x264 core 157 r2935 545de2f
Encoding settings           : cabac=1 / ref=15 / deblock=1:-3:-3 / analyse=0x3:0x133 / me=umh / subme=11 / psy=1 / psy_rd=1.05:0.10 / mixed_ref=1 / me_range=48 / chroma_me=1 / trellis=2 / 8x8dct=1 / cqm=0 / deadzone=21,11 / fast_pskip=1 / chroma_qp_offset=-3 / threads=6 / lookahead_threads=1 / sliced_threads=0 / nr=0 / decimate=1 / interlaced=0 / bluray_compat=0 / constrained_intra=0 / bframes=12 / b_pyramid=2 / b_adapt=2 / b_bias=0 / direct=1 / weightb=1 / open_gop=0 / weightp=2 / keyint=250 / keyint_min=23 / scenecut=40 / intra_refresh=0 / rc=crf / mbtree=0 / crf=17.5 / qcomp=0.60 / qpmin=0 / qpmax=69 / qpstep=4 / ip_ratio=1.40 / pb_ratio=1.30 / aq=3:0.80
Language                    : English
Default                     : Yes
Forced                      : No
Color range                 : Limited
Color primaries             : BT.709
Transfer characteristics    : BT.709
Matrix coefficients         : BT.709

Audio #1
ID                          : 2
Format                      : AC-3
Format/Info                 : Audio Coding 3
Commercial name             : Dolby Digital
Codec ID                    : A_AC3
Duration                    : 1 h 32 min
Bit rate mode               : Constant
Bit rate                    : 448 kb/s
Channel(s)                  : 6 channels
Channel layout              : L R C LFE Ls Rs
Sampling rate               : 48.0 kHz
Frame rate                  : 31.250 FPS (1536 SPF)
Bit depth                   : 16 bits
Compression mode            : Lossy
Stream size                 : 297 MiB (10%)
Title                       : MVO_(HDRezka Studio)
Language                    : Russian
Service kind                : Complete Main
Default                     : Yes
Forced                      : No

Audio #2
ID                          : 3
Format                      : AC-3
Format/Info                 : Audio Coding 3
Commercial name             : Dolby Digital
Codec ID                    : A_AC3
Duration                    : 1 h 32 min
Bit rate mode               : Constant
Bit rate                    : 448 kb/s
Channel(s)                  : 6 channels
Channel layout              : L R C LFE Ls Rs
Sampling rate               : 48.0 kHz
Frame rate                  : 31.250 FPS (1536 SPF)
Bit depth                   : 16 bits
Compression mode            : Lossy
Stream size                 : 297 MiB (10%)
Title                       : AVO_(Д.Есарев)
Language                    : Russian
Service kind                : Complete Main
Default                     : No
Forced                      : No

Audio #3
ID                          : 4
Format                      : AC-3
Format/Info                 : Audio Coding 3
Commercial name             : Dolby Digital
Codec ID                    : A_AC3
Duration                    : 1 h 32 min
Bit rate mode               : Constant
Bit rate                    : 448 kb/s
Channel(s)                  : 6 channels
Channel layout              : L R C LFE Ls Rs
Sampling rate               : 48.0 kHz
Frame rate                  : 31.250 FPS (1536 SPF)
Bit depth                   : 16 bits
Compression mode            : Lossy
Stream size                 : 297 MiB (10%)
Title                       : ENG
Language                    : English
Service kind                : Complete Main
Default                     : No
Forced                      : No

Text #1
ID                          : 5
Format                      : UTF-8
Codec ID                    : S_TEXT/UTF8
Codec ID/Info               : UTF-8 Plain Text
Duration                    : 1 h 23 min
Bit rate                    : 3 b/s
Count of elements           : 53
Stream size                 : 2.37 KiB (0%)
Title                       : Forced
Language                    : Russian
Default                     : No
Forced                      : Yes

Text #2
ID                          : 6
Format                      : UTF-8
Codec ID                    : S_TEXT/UTF8
Codec ID/Info               : UTF-8 Plain Text
Duration                    : 1 h 21 min
Bit rate                    : 80 b/s
Count of elements           : 1061
Stream size                 : 47.9 KiB (0%)
Title                       : Full
Language                    : Russian
Default                     : Yes
Forced                      : No

Text #3
ID                          : 7
Format                      : UTF-8
Codec ID                    : S_TEXT/UTF8
Codec ID/Info               : UTF-8 Plain Text
Duration                    : 1 h 26 min
Bit rate                    : 49 b/s
Count of elements           : 1162
Stream size                 : 31.4 KiB (0%)
Title                       : Full
Language                    : English
Default                     : No
Forced                      : No

Text #4
ID                          : 8
Format                      : UTF-8
Codec ID                    : S_TEXT/UTF8
Codec ID/Info               : UTF-8 Plain Text
Duration                    : 1 h 30 min
Bit rate                    : 50 b/s
Count of elements           : 1388
Stream size                 : 33.2 KiB (0%)
Title                       : SDH
Language                    : English
Default                     : No
Forced                      : No

Menu
00:00:00.000                : :Chapter 01
00:11:33.151                : :Chapter 02
00:24:00.564                : :Chapter 03
00:35:38.136                : :Chapter 04
00:49:49.987                : :Chapter 05
01:04:29.991                : :Chapter 06
01:17:18.717                : :Chapter 07
01:24:35.279                : :Chapter 08



Скриншоты:
[+] Всего файлов в раздаче - 1:
Железное небо 2.(2019).BDRip-AVC.[-=DoMiNo=-].mkv3.01 GB

Показать еще раздачи по запросу железное:
2019-07-13 U Железное небо 2: Грядущая раса / Iron Sky: The Coming Race (2019) BDRip 720p от k.e.n & MegaPeer | P, A 4.08 GB ↑ 64 ↓ 15
2019-07-05 U Железное небо 2: Грядущая раса / Iron Sky: The Coming Race (2019) BDRip-HEVC 1080p | P, A 6.74 GB ↑ 52 ↓ 36
2019-07-05 U Железное небо 2: Грядущая раса / Iron Sky: The Coming Race (2019) BDRip | HDRezka Studio 1.46 GB ↑ 130 ↓ 44
2019-07-04 U Железное небо 2: Грядущая раса / Iron Sky: The Coming Race (2019) BDRip-AVC | P, A 2.84 GB ↑ 80 ↓ 24
2019-05-19 U Железное небо 2: Грядущая раса / Iron Sky: The Coming Race (2019) BDRip-AVC | P, A 2.84 GB ↑ 222 ↓ 86
2019-05-11 U Железное небо 2: Грядущая раса / Iron Sky: The Coming Race (2019) BDRip-AVC от ExKinoRay | BadBajo 1.98 GB ↑ 78 ↓ 29
2019-05-11 U Железное небо 2: Грядущая раса / Iron Sky: The Coming Race (2019) BDRip 1080p | L2, A 7.96 GB ↑ 172 ↓ 54

Отзывы
Зарегистрируйтесь чтобы добавить комментарий.
Обратная связь
Copyleft ©