↑↓Torrent.by
Поиск
Логин: Регистрация
Пароль: Восстановить пароль
Загрузка...

Последние цари / The Last Czars [S01] (2019) WEB-DL 1080p | D, P

Скачать poslednie-cari-the-last-czars-s01-2019-web-dl-1080p-d-p.torrent
U Магнитная ссылка Размер: 11.65 GB Раздают: 86 Качают: 86 Добавлен: 2019-07-06 19:29:20
Последние цари / The Last Czars [S01] (2019) WEB-DL 1080p | D, P

Название: Последние цари
Оригинальное название: The Last Czars
Год выхода: 2019
Жанр: Документальный, история, биография
Страна: США
Перевод: Дублированный + профессиональный многоголосый | Netflix
Продолжительность: 6x ~ 44 мин
Режиссеры: Адриан МакДауэлл, Гарет Танли
В ролях: Роберт Джек, Сюзанна Херберт, Бен Картрайт, Оливер Димсдейл, Бернис Стиджерс, Стеффан Бойе, Индре Паткаускайте, Юрга Седуйките, Дункан Поу, Карина Стунгите и др.

О фильме: Летописный взгляд на падение династии Романовых в России.

Файл
Качество: WEB-DL 1080p
Видео: MPEG-4 AVC, 1920x1080, 5631 kbps, 25,000 fps
Звук#1: русский, E-AC3, 5.1 ch, 48 kHz, 640 kbps
Звук#2: английский, E-AC3, 5.1 ch, 48 kHz, 640 kbps  
Субтитры: русские (форс., полные), английские (SDH)

Релиз:
[+] MI
Общее
Уникальный идентификатор                 : 189796311968050715080273522803439109560 (0x8EC970A777B5BA61BF2EA585EB1505B8)
Полное имя                               : F:TorrentTheLastCzarsS01TheLastCzarsS01x02.mkv
Формат                                   : Matroska
Версия формата                           : Version 4 / Version 2
Размер файла                             : 2,09 Гбайт
Продолжительность                        : 43 м. 14 с.
Общий поток                              : 6914 Кбит/сек
Дата кодирования                         : UTC 2019-07-06 08:17:03
Программа кодирования                    : mkvmerge v9.5.0 ('Quiet Fire') 64bit
Библиотека кодирования                   : libebml v1.3.4 + libmatroska v1.4.5

Видео
Идентификатор                            : 1
Формат                                   : AVC
Формат/Информация                        : Advanced Video Codec
Профиль формата                          : Main@L4
Настройки формата                        : CABAC / 3 Ref Frames
Параметр CABAC формата                   : Да
Параметр RefFrames формата               : 3 кадра
Идентификатор кодека                     : V_MPEG4/ISO/AVC
Продолжительность                        : 43 м. 14 с.
Битрейт                                  : 5631 Кбит/сек
Ширина                                   : 1920 пикселей
Высота                                   : 1080 пикселей
Соотношение сторон                       : 16:9
Режим частоты кадров                     : Постоянный
Частота кадров                           : 25,000 кадров/сек
Цветовое пространство                    : YUV
Субдискретизация насыщенности            : 4:2:0
Битовая глубина                          : 8 бит
Тип развёртки                            : Прогрессивная
Бит/(Пиксели*Кадры)                      : 0.109
Размер потока                            : 1,70 Гбайт (81%)
Язык                                     : English
Default                                  : Да
Forced                                   : Нет

Аудио #1
Идентификатор                            : 2
Формат                                   : E-AC-3
Формат/Информация                        : Enhanced Audio Coding 3
Параметр Endianness формата              : Big
Идентификатор кодека                     : A_EAC3
Продолжительность                        : 43 м. 14 с.
Вид битрейта                             : Постоянный
Битрейт                                  : 640 Кбит/сек
Каналы                                   : 6 каналов
Расположение каналов                     : Front: L C R, Side: L R, LFE
Частота                                  : 48,0 КГц
Частота кадров                           : 187,500 кадров/сек (256 SPF)
Метод сжатия                             : С потерями
Размер потока                            : 198 Мбайт (9%)
Заголовок                                : rus
Язык                                     : Russian
Default                                  : Да
Forced                                   : Нет

Аудио #2
Идентификатор                            : 3
Формат                                   : E-AC-3
Формат/Информация                        : Enhanced Audio Coding 3
Параметр Endianness формата              : Big
Идентификатор кодека                     : A_EAC3
Продолжительность                        : 43 м. 14 с.
Вид битрейта                             : Постоянный
Битрейт                                  : 640 Кбит/сек
Каналы                                   : 6 каналов
Расположение каналов                     : Front: L C R, Side: L R, LFE
Частота                                  : 48,0 КГц
Частота кадров                           : 187,500 кадров/сек (256 SPF)
Метод сжатия                             : С потерями
Размер потока                            : 198 Мбайт (9%)
Заголовок                                : eng
Язык                                     : English
Default                                  : Нет
Forced                                   : Нет

Текст #1
Идентификатор                            : 4
Формат                                   : UTF-8
Идентификатор кодека                     : S_TEXT/UTF8
Идентификатор кодека/Информация          : UTF-8 Plain Text
Продолжительность                        : 42 м. 29 с.
Битрейт                                  : 103 бит/сек
ElementCount                             : 593
Размер потока                            : 32,3 Кбайт (0%)
Заголовок                                : rusFull
Язык                                     : Russian
Default                                  : Нет
Forced                                   : Нет

Текст #2
Идентификатор                            : 5
Формат                                   : UTF-8
Идентификатор кодека                     : S_TEXT/UTF8
Идентификатор кодека/Информация          : UTF-8 Plain Text
Продолжительность                        : 41 м. 46 с.
Битрейт                                  : 77 бит/сек
ElementCount                             : 734
Размер потока                            : 23,8 Кбайт (0%)
Заголовок                                : engSDH
Язык                                     : English
Default                                  : Нет
Forced                                   : Нет




Скриншоты:
[+] Всего файлов в раздаче - 6:
TheLastCzarsS01x06.mkv2.32 GB
TheLastCzarsS01x05.mkv2.29 GB
TheLastCzarsS01x02.mkv2.09 GB
TheLastCzarsS01x01.mkv1.85 GB
TheLastCzarsS01x03.mkv1.57 GB
TheLastCzarsS01x04.mkv1.53 GB

Показать еще раздачи по запросу последние:
2019-06-22 U Последние любовники / Порту / Porto (2016) HDRip | iTunes 1.46 GB ↑ 108 ↓ 26
2019-01-27 U Ёлки Последние (2018) WEB-DLRip от Generalfilm | КПК | iTunes 365.11 MB ↑ 73 ↓ 10
2019-01-27 U Ёлки Последние (2018) WEB-DLRip от Scarabey | iTunes 1К1.44 GB ↑ 261 ↓ 47
2019-01-25 U Ёлки Последние (2018) WEB-DLRip-AVC от ExKinoRay | iTunes 743.74 MB ↑ 67 ↓ 32
2019-01-25 U Ёлки Последние (2018) WEB-DLRip от GeneralFilm | iTunes 746.61 MB ↑ 203 ↓ 33
2019-01-24 U Ёлки Последние (2018) WEB-DLRip от ExKinoRay | iTunes 745.69 MB ↑ 382 ↓ 131
2019-01-24 U Ёлки Последние (2018) WEB-DL 720p | iTunes 2.97 GB ↑ 207 ↓ 138

Отзывы
Зарегистрируйтесь чтобы добавить комментарий.
Обратная связь
Copyleft ©