↑↓Torrent.by
Поиск
Логин: Регистрация
Пароль: Восстановить пароль
Загрузка...

Плейбой под прикрытием / Nicky Larson et le parfum de Cupidon (2018) BDRip-AVC от New-Team | D

Скачать pleyboy-pod-prikrytiem-nicky-larson-et-le-parfum-de-cupidon-2018-bdrip-avc-ot-new-team-d.torrent
U Магнитная ссылка Размер: 1.48 GB Раздают: 85 Качают: 39 Добавлен: 2019-07-06 19:29:25
Плейбой под прикрытием / Nicky Larson et le parfum de Cupidon (2018) BDRip-AVC от New-Team | D

Плейбой под прикрытием
Nicky Larson et le parfum de Cupidon

Страна: Франция
Жанр:  боевик, комедия, криминал
Год выпуска: 2018
Продолжительность: 01:31:15

Перевод: Профессиональный (полное дублирование) [iTunes]
Субтитры: русские (полные)
Оригинальная аудиодорожка: нет

Режиссер: Филипп Лашо / Philippe Lacheau

В ролях: Филипп Лашо, Элоди Фонтан, Тарек Будали, Жюльен Аррути, Дидье Бурдон, Памела Андерсон, Жерар Жюньо, Камел Генфу, Одри Лами, Шанталь Ладезу

Описание: Частный детектив (и ловелас по совместительству), известный как Городской Охотник, получает на руки запутанное дело. По просьбе своей эффектной и неприступной напарницы сыщик соглашается взяться за работу. Теперь плейбою под прикрытием предстоит отправиться в Монако - на территорию больших денег и красивых женщин...

Релиз:

Автор рипа: stalkerok

Семпл

Качество видео: BDRip-AVC | Исходник: Nicky Larson et le parfum de Cupidon 2018 1080p Blu-ray AVC DTS-HD MA 5.1-WiHD
Формат видео: MKV
Видео кодек: AVC
Аудио кодек: AC3
Видео: AVC, 1932 Кбит/сек, 1046x438 (2.40:1), 24 кадр/сек
Аудио: AC3, 384 Кбит/сек, 48 КГц, 5.1 - русский
Навигация по главам: есть


[+] x264/MediaInfo


---[Information] [06.07.2019 14:13:47] x264 [info]: frame I:1284  Avg QP:16.23  size: 58873
---[Information] [06.07.2019 14:13:47] x264 [info]: frame P:30508 Avg QP:17.95  size: 21076
---[Information] [06.07.2019 14:13:47] x264 [info]: frame B:99607 Avg QP:20.27  size:  6066

General
Unique ID                                : 77732462337354674281592832922400627246 (0x3A7ABA49AC0C315E13F2EE7B4EDC9A2E)
Complete name                            : C:tempNicky Larson et le parfum de CupidonNicky.Larson.et.le.parfum.de.Cupidon.2018.BDRip.x264.Rus.stalkerok.New-Team.mkv
Format                                   : Matroska
Format version                           : Version 4 / Version 2
File size                                : 1.48 GiB
Duration                                 : 1 h 31 min
Overall bit rate                         : 2 319 kb/s
Movie name                               : Nicky Larson et le parfum de Cupidon (2018) | Rip by stalkerok
Encoded date                             : UTC 2019-07-06 11:21:52
Writing application                      : mkvmerge v33.1.0 ('Primrose') 64-bit
Writing library                          : libebml v1.3.7 + libmatroska v1.5.0

Video
ID                                       : 1
Format                                   : AVC
Format/Info                              : Advanced Video Codec
Format profile                           : High@L4.1
Format settings, CABAC                   : Yes
Format settings, ReFrames                : 12 frames
Codec ID                                 : V_MPEG4/ISO/AVC
Duration                                 : 1 h 31 min
Bit rate                                 : 1 933 kb/s
Width                                    : 1 046 pixels
Height                                   : 438 pixels
Display aspect ratio                     : 2.40:1
Frame rate mode                          : Constant
Frame rate                               : 24.000 FPS
Color space                              : YUV
Chroma subsampling                       : 4:2:0
Bit depth                                : 8 bits
Scan type                                : Progressive
Bits/(Pixel*Frame)                       : 0.176
Stream size                              : 1.23 GiB (83%)
Title                                    : Nicky Larson et le parfum de Cupidon (2018) | Rip by stalkerok
Writing library                          : x264 core 157 r2945 72db437
Encoding settings                        : cabac=1 / ref=12 / deblock=1:-3:-2 / analyse=0x3:0x133 / me=umh / subme=10 / psy=1 / psy_rd=1.00:0.00 / mixed_ref=1 / me_range=32 / chroma_me=1 / trellis=2 / 8x8dct=1 / cqm=0 / deadzone=21,11 / fast_pskip=0 / chroma_qp_offset=-2 / threads=12 / lookahead_threads=3 / sliced_threads=0 / nr=0 / decimate=1 / interlaced=0 / bluray_compat=0 / constrained_intra=0 / bframes=14 / b_pyramid=2 / b_adapt=2 / b_bias=0 / direct=3 / weightb=1 / open_gop=0 / weightp=2 / keyint=240 / keyint_min=23 / scenecut=40 / intra_refresh=0 / rc_lookahead=60 / rc=crf / mbtree=0 / crf=18.2 / qcomp=0.65 / qpmin=0 / qpmax=69 / qpstep=4 / vbv_maxrate=50000 / vbv_bufsize=62500 / crf_max=0.0 / nal_hrd=none / filler=0 / ip_ratio=1.40 / pb_ratio=1.30 / aq=3:0.80 / zones=127455,131398,q=32
Default                                  : Yes
Forced                                   : No

Audio
ID                                       : 2
Format                                   : AC-3
Format/Info                              : Audio Coding 3
Mode extension                           : CM (complete main)
Format settings, Endianness              : Big
Codec ID                                 : A_AC3
Duration                                 : 1 h 31 min
Bit rate mode                            : Constant
Bit rate                                 : 384 kb/s
Channel(s)                               : 6 channels
Channel positions                        : Front: L C R, Side: L R, LFE
Sampling rate                            : 48.0 kHz
Frame rate                               : 31.250 FPS (1536 spf)
Compression mode                         : Lossy
Stream size                              : 251 MiB (17%)
Title                                    : Dub
Language                                 : Russian
Default                                  : Yes
Forced                                   : No

Text
ID                                       : 3
Format                                   : UTF-8
Codec ID                                 : S_TEXT/UTF8
Codec ID/Info                            : UTF-8 Plain Text
Duration                                 : 1 h 30 min
Bit rate                                 : 77 b/s
Count of elements                        : 1188
Stream size                              : 51.4 KiB (0%)
Title                                    : Full
Language                                 : Russian
Default                                  : No
Forced                                   : No

Menu
00:00:00.000                             : en:Chapter 01
00:06:35.542                             : en:Chapter 02
00:17:02.208                             : en:Chapter 03
00:26:28.583                             : en:Chapter 04
00:33:25.500                             : en:Chapter 05
00:40:12.375                             : en:Chapter 06
00:48:23.792                             : en:Chapter 07
00:53:50.375                             : en:Chapter 08
01:04:50.708                             : en:Chapter 09
01:09:02.292                             : en:Chapter 10
01:20:15.667                             : en:Chapter 11
01:28:28.292                             : en:Chapter 12




Скриншоты:
[+] Всего файлов в раздаче - 1:
Nicky.Larson.et.le.parfum.de.Cupidon.2018.BDRip.x264.Rus.stalkerok.New-Team.mkv1.48 GB

Показать еще раздачи по запросу плейбой:
2019-07-08 U Плейбой под прикрытием / Nicky Larson et le parfum de Cupidon (2018) BDRip-HEVC 1080p | iTunes 4.26 GB ↑ 111 ↓ 57
2019-07-07 U Плейбой под прикрытием / Nicky Larson et le parfum de Cupidon (2018) BDRip-AVC от New-Team | D 746.41 MB ↑ 41 ↓ 14
2019-07-07 U Плейбой под прикрытием / Nicky Larson et le parfum de Cupidon (2018) BDRip-AVC от ExKinoRay | iTunes 2.25 GB ↑ 31 ↓ 7
2019-07-07 U Плейбой под прикрытием / Nicky Larson et le parfum de Cupidon (2018) BDRip-AVC от ExKinoRay | iTunes 743.93 MB ↑ 21 ↓ 15
2019-07-07 U Плейбой под прикрытием / Nicky Larson et le parfum de Cupidon (2018) BDRip от Twister & ExKinoRay | iTunes 1.42 GB ↑ 83 ↓ 19
2019-07-06 U Плейбой под прикрытием / Nicky Larson et le parfum de Cupidon (2018) BDRemux 1080p от селезень | iTunes 17.85 GB ↑ 60 ↓ 65
2019-07-06 U Плейбой под прикрытием / Nicky Larson et le parfum de Cupidon (2018) BDRip 720p от селезень | iTunes 1К3.82 GB ↑ 231 ↓ 132

Отзывы
Зарегистрируйтесь чтобы добавить комментарий.
Обратная связь
Copyleft ©