↑↓Torrent.by
Поиск
Логин: Регистрация
Пароль: Восстановить пароль
Загрузка...

Ловушка для королевы [01-08 из 08] (2019) HDTVRip от GeneralFilm

Скачать lovushka-dlya-korolevy-01-08-iz-2019-hdtvrip-ot-generalfilm.torrent
U Магнитная ссылка Размер: 4.35 GB Раздают: 21 Качают: 16 Добавлен: 2019-07-07 05:33:58
Ловушка для королевы [01-08 из 08] (2019) HDTVRip от GeneralFilm

Оригинальное название: Ловушка для королевы
Год выпуска: 2019
Жанр:  Криминальный фильм, мелодрама
Выпущено: Россия, ООО Беркана
Режиссер: Дмитрий Сорокин
В ролях: Аглая Шиловская, Ксения Лаврова-Глинка, Александр Дьяченко, Андрей Ташков, Пётр Романов, Юрий Назаров, Татьяна Космачёва, Михаил Гудошников, Дарья Пармененкова, Михаил Богдасаров

О сериале: Мария Лебедева — королева шахмат, чемпионка мира среди женщин. Всю жизнь к победе Марию подталкивали ее мать и отчим, ведь большие победы сулят и большие деньги. Однако для самой шахматной королевы турниры — не вся жизнь. Она мечтает о семье и любви, а еще надеется разыскать своего родного отца. Об этом Мария после очередной победы заявляет журналистам на всю страну. И вдруг ее отец, Платон Щербинский, спустя столько лет сам находит Марию. Он собирается сообщить ей нечто важное, но не успевает… Щербинского находят мертвым.

Качество: HDTVRip
Видео: XviD build 73, 720x400 (16:9), 25.000 fps, ~ 1300 Kbps (~ 0.180 bit/pixel)
Аудио: 48.0 kHz, AC3, 2/0 ch, 192 kbps
Продолжительность: 8 х ~ 00:51:00
Перевод: Не требуется [Русский]
Cубтитры: нет

Релиз:


[+] MediaInfo
General
Complete name               : D:RazdachiLovushka.Dlja.Korolevy.2019.HDTVRip.GeneralFilm.avie01.Lovushka.Dlja.Korolevy.avi
Format                      : AVI
Format/Info                 : Audio Video Interleave
File size                   : 557 MiB
Duration                    : 51 min 59 s
Overall bit rate            : 1 498 kb/s
Writing application         : VirtualDubMod 1.5.10.3 | www.virtualdub-fr.org || (build 2550/release)
Writing library             : VirtualDubMod build 2550/release

Video
ID                          : 0
Format                      : MPEG-4 Visual
Format profile              : Advanced Simple@L5
Format settings             : BVOP1 / Custom Matrix
Format settings, BVOP       : 1
Format settings, QPel       : No
Format settings, GMC        : No warppoints
Format settings, Matrix     : Custom
Codec ID                    : XVID
Codec ID/Hint               : XviD
Duration                    : 51 min 59 s
Bit rate                    : 1 296 kb/s
Width                       : 720 pixels
Height                      : 400 pixels
Display aspect ratio        : 16:9
Frame rate                  : 25.000 FPS
Color space                 : YUV
Chroma subsampling          : 4:2:0
Bit depth                   : 8 bits
Scan type                   : Progressive
Compression mode            : Lossy
Bits/(Pixel*Frame)          : 0.180
Stream size                 : 482 MiB (87%)
Writing library             : XviD 73

Audio
ID                          : 1
Format                      : AC-3
Format/Info                 : Audio Coding 3
Commercial name             : Dolby Digital
Codec ID                    : 2000
Duration                    : 51 min 59 s
Bit rate mode               : Constant
Bit rate                    : 192 kb/s
Channel(s)                  : 2 channels
Channel layout              : L R
Sampling rate               : 48.0 kHz
Frame rate                  : 31.250 FPS (1536 SPF)
Bit depth                   : 16 bits
Compression mode            : Lossy
Delay relative to video     : 240 ms
Stream size                 : 71.4 MiB (13%)
Alignment                   : Split accross interleaves
Interleave, duration        : 40  ms (1.00 video frame)
Interleave, preload duratio : 500  ms
Service kind                : Complete Main



Скриншоты:
[+] Всего файлов в раздаче - 8:
e01.Lovushka.Dlja.Korolevy.avi557.08 MB
e02.Lovushka.Dlja.Korolevy.avi557.47 MB
e03.Lovushka.Dlja.Korolevy.avi557.41 MB
e04.Lovushka.Dlja.Korolevy.avi556.93 MB
e05.Lovushka.Dlja.Korolevy.avi557.13 MB
e06.Lovushka.Dlja.Korolevy.avi557.31 MB
e07.Lovushka.Dlja.Korolevy.avi557.29 MB
e08.Lovushka.Dlja.Korolevy.avi557.06 MB

Показать еще раздачи по запросу ловушка:
2019-07-06 U Ловушка для королевы [01-08 из 08] (2019) HDTVRip 720p от ExKinoRay 11.90 GB ↑ 47 ↓ 30
2019-07-06 U Ловушка для королевы [01-08 из 08] (2019) HDTVRip от Files-x 5.41 GB ↑ 38 ↓ 27
2019-07-05 U Ловушка для королевы [01-08 из 08] (2019) WEBRip от Files-x 5.47 GB ↑ 56 ↓ 40
2019-07-04 U Ловушка для королевы [01-08 из 08] (2019) SATRip 4.69 GB ↑ 141 ↓ 235
2019-07-04 U Ловушка для королевы [01х01-08 из 08] (2019) SATRip-AVC 5.18 GB ↑ 2 ↓ 4
2019-07-04 U Ловушка для королевы [01-06 из 08] (2019) SATRip 3.52 GB ↑ 89 ↓ 81
2019-07-02 U Ловушка для королевы [01-02 из 08] (2019) WEBRip от Files-x 1.37 GB ↑ 19 ↓ 10

Отзывы
Зарегистрируйтесь чтобы добавить комментарий.
Обратная связь
Copyleft ©