↑↓Torrent.by
Поиск
Логин: Регистрация
Пароль: Восстановить пароль
Загрузка...

Плейбой под прикрытием / Nicky Larson et le parfum de Cupidon (2018) BDRip-AVC от ExKinoRay | iTunes

Скачать pleyboy-pod-prikrytiem-nicky-larson-et-le-parfum-de-cupidon-2018-bdrip-avc-ot-exkinoray-itunes.torrent
U Магнитная ссылка Размер: 743.93 MB Раздают: 21 Качают: 15 Добавлен: 2019-07-07 05:35:39
Плейбой под прикрытием / Nicky Larson et le parfum de Cupidon (2018) BDRip-AVC от ExKinoRay | iTunes

Название: Плейбой под прикрытием
Оригинальное название: Nicky Larson et le parfum de Cupidon
Год выпуска: 2018
Жанр:  Боевик, комедия, криминал
Режиссер: Филипп Лашо
В ролях: Филипп Лашо, Элоди Фонтан, Тарек Будали, Жюльен Аррути, Дидье Бурдон, Памела Андерсон, Жерар Жюньо, Камел Генфу, Одри Лами, Шанталь Ладезу

О фильме:
Сюжет фильма основан на японской манге Хайо Цукаса «Городской охотник». Главный герой экшен-комедии ‒ Ники Ларсон, выдающийся детектив и телохранитель, чьи навыки ведения боя и стрельбы настолько исключительны, что к нему обращаются с проблемами, которые никто больше не в силах решить. Вместе со своей партнёршей Лорой Маркони он способен разгадать самые запутанные, опасные и сложные дела. У Ларсона есть лишь один недостаток: его склонность к представительницам слабого пола. Однажды один из его клиентов поручает Ники защищать аромат Купидона, позволяющий любому стать неотразимым. Бандиты завладевают волшебным парфюмом и Ники Ларсон должен его вернуть во что бы то ни стало.

Страна: Франция
Студия: Axel Films, Baf Prod, M6 Films
Продолжительность: 01:31:14
Перевод: Дублированный | iTunes

Файл
Формат: MKV
Качество: BDRip-AVC (BDRemux 1080p)
Видео: MPEG-4 AVC, 784x328, - 1065 Кбит/с
Аудио:  AAC-HE, 2 ch, - 76 Кбит/с
Субтитры: Русские (full)


[+] MI
Общее
Уникальный идентификатор : 94244066151333151099270274582857925620 (0x46E6BF355FA3D13BA3CD1550E81C43F4)
Полное имя : D:MOVIESPlejboj.Pod.Prikrytiem.2018.BDRip-AVC.ExKinoRay.mkv
Формат : Matroska
Версия формата : Version 4 / Version 2
Размер файла : 744 Мбайт
Продолжительность : 1 ч. 31 м.
Общий поток : 1140 Кбит/сек
Дата кодирования : UTC 2019-07-06 18:41:34
Программа кодирования : mkvmerge v32.0.0 ('Astral Progressions') 64-bit
Библиотека кодирования : libebml v1.3.7 + libmatroska v1.5.0

Видео
Идентификатор : 1
Формат : AVC
Формат/Информация : Advanced Video Codec
Профиль формата : High@L4.1
Параметр CABAC формата : Да
Параметр RefFrames формата : 12 кадров
Идентификатор кодека : V_MPEG4/ISO/AVC
Продолжительность : 1 ч. 31 м.
Битрейт : 1065 Кбит/сек
Ширина : 784 пикселя
Высота : 328 пикселей
Соотношение сторон : 2,40:1
Режим частоты кадров : Постоянный
Частота кадров : 24,000 кадра/сек
Цветовое пространство : YUV
Субдискретизация насыщенности : 4:2:0
Битовая глубина : 8 бит
Тип развёртки : Прогрессивная
Бит/(Пиксели*Кадры) : 0.173
Размер потока : 693 Мбайт (93%)
Библиотека кодирования : x264 core 152 r2851kMod ba24899
Настройки программы : cabac=1 / ref=12 / deblock=1:-2:-2 / analyse=0x3:0x133 / me=umh / subme=10 / psy=1 / fade_compensate=0.00 / psy_rd=1.00:0.10 / mixed_ref=1 / me_range=32 / chroma_me=1 / trellis=2 / 8x8dct=1 / cqm=0 / deadzone=21,11 / fast_pskip=0 / chroma_qp_offset=-3 / threads=6 / lookahead_threads=1 / sliced_threads=0 / nr=0 / decimate=0 / interlaced=0 / bluray_compat=0 / constrained_intra=0 / bframes=12 / b_pyramid=2 / b_adapt=2 / b_bias=0 / direct=3 / weightb=1 / open_gop=0 / weightp=2 / keyint=240 / keyint_min=23 / scenecut=40 / intra_refresh=0 / rc_lookahead=40 / rc=2pass / mbtree=1 / bitrate=1065 / ratetol=1.0 / qcomp=0.60 / qpmin=0 / qpmax=69 / qpstep=4 / cplxblur=20.0 / qblur=0.5 / ip_ratio=1.40 / aq=3:1.00
Default : Да
Forced : Нет

Аудио
Идентификатор : 2
Формат : AAC
Формат/Информация : Advanced Audio Codec
Профиль формата : HE-AAC / LC
Идентификатор кодека : A_AAC
Продолжительность : 1 ч. 31 м.
Битрейт : 76,0 Кбит/сек
Каналы : 2 канала
Расположение каналов : Front: L R
Частота : 48,0 КГц / 24,0 КГц
Частота кадров : 23,438 кадра/сек (1024 SPF)
Метод сжатия : С потерями
Задержка видео : 31 мс.
Размер потока : 49,6 Мбайт (7%)
Язык : Russian
Default : Да
Forced : Нет

Текст
Идентификатор : 3
Формат : UTF-8
Идентификатор кодека : S_TEXT/UTF8
Идентификатор кодека/Информация : UTF-8 Plain Text
Продолжительность : 1 ч. 30 м.
Битрейт : 77 бит/сек
ElementCount : 1188
Размер потока : 51,4 Кбайт (0%)
Заголовок : Full
Язык : Russian
Default : Нет
Forced : Нет

Меню
00:00:00.000 : en:Chapter 01
00:06:35.542 : en:Chapter 02
00:17:02.208 : en:Chapter 03
00:26:28.583 : en:Chapter 04
00:33:25.500 : en:Chapter 05
00:40:12.375 : en:Chapter 06
00:48:23.792 : en:Chapter 07
00:53:50.375 : en:Chapter 08
01:04:50.708 : en:Chapter 09
01:09:02.292 : en:Chapter 10
01:20:15.667 : en:Chapter 11
01:28:28.292 : en:Chapter 12



Скриншоты:
[+] Всего файлов в раздаче - 1:
Plejboj.Pod.Prikrytiem.2018.BDRip-AVC.ExKinoRay.mkv743.93 MB

Показать еще раздачи по запросу плейбой:
2019-07-08 U Плейбой под прикрытием / Nicky Larson et le parfum de Cupidon (2018) BDRip-HEVC 1080p | iTunes 4.26 GB ↑ 111 ↓ 57
2019-07-07 U Плейбой под прикрытием / Nicky Larson et le parfum de Cupidon (2018) BDRip-AVC от New-Team | D 746.41 MB ↑ 35 ↓ 14
2019-07-07 U Плейбой под прикрытием / Nicky Larson et le parfum de Cupidon (2018) BDRip-AVC от ExKinoRay | iTunes 2.25 GB ↑ 31 ↓ 7
2019-07-07 U Плейбой под прикрытием / Nicky Larson et le parfum de Cupidon (2018) BDRip от Twister & ExKinoRay | iTunes 1.42 GB ↑ 81 ↓ 18
2019-07-06 U Плейбой под прикрытием / Nicky Larson et le parfum de Cupidon (2018) BDRip-AVC от New-Team | D 1.48 GB ↑ 85 ↓ 39
2019-07-06 U Плейбой под прикрытием / Nicky Larson et le parfum de Cupidon (2018) BDRemux 1080p от селезень | iTunes 17.85 GB ↑ 60 ↓ 65
2019-07-06 U Плейбой под прикрытием / Nicky Larson et le parfum de Cupidon (2018) BDRip 720p от селезень | iTunes 1К3.82 GB ↑ 232 ↓ 132

Отзывы
Зарегистрируйтесь чтобы добавить комментарий.
Обратная связь
Copyleft ©