↑↓Torrent.by
Поиск
Логин: Регистрация
Пароль: Восстановить пароль
Загрузка...

Плейбой под прикрытием / Nicky Larson et le parfum de Cupidon (2018) BDRip-AVC от New-Team | D

Скачать pleyboy-pod-prikrytiem-nicky-larson-et-le-parfum-de-cupidon-2018-bdrip-avc-ot-new-team-d.torrent
U Магнитная ссылка Размер: 746.41 MB Раздают: 34 Качают: 14 Добавлен: 2019-07-07 05:36:08
Плейбой под прикрытием / Nicky Larson et le parfum de Cupidon (2018) BDRip-AVC от New-Team | D

Плейбой под прикрытием
Nicky Larson et le parfum de Cupidon

Страна: Франция
Жанр:  боевик, комедия, криминал
Год выпуска: 2018
Продолжительность: 01:31:15

Перевод: Профессиональный (полное дублирование) [iTunes]
Субтитры: русские (полные)
Оригинальная аудиодорожка: нет

Режиссер: Филипп Лашо / Philippe Lacheau

В ролях: Филипп Лашо, Элоди Фонтан, Тарек Будали, Жюльен Аррути, Дидье Бурдон, Памела Андерсон, Жерар Жюньо, Камел Генфу, Одри Лами, Шанталь Ладезу

Описание: Частный детектив (и ловелас по совместительству), известный как Городской Охотник, получает на руки запутанное дело. По просьбе своей эффектной и неприступной напарницы сыщик соглашается взяться за работу. Теперь плейбою под прикрытием предстоит отправиться в Монако - на территорию больших денег и красивых женщин...

Релиз:

Автор рипа: stalkerok

Семпл

Качество видео: BDRip-AVC | Исходник: Nicky Larson et le parfum de Cupidon 2018 1080p Blu-ray AVC DTS-HD MA 5.1-WiHD
Формат видео: MKV
Видео кодек: AVC
Аудио кодек: AAC
Видео: AVC, 1078 Кбит/сек, 874x366 (2.40:1), 24 кадр/сек
Аудио: AAC, 64 Кбит/сек, 48 КГц, 2.0 - русский
Навигация по главам: есть


[+] x264/MediaInfo


---[Information] [06.07.2019 19:28:59] x264 [info]: frame I:1257  Avg QP:16.51  size: 42808
---[Information] [06.07.2019 19:28:59] x264 [info]: frame P:31220 Avg QP:20.34  size: 11959
---[Information] [06.07.2019 19:28:59] x264 [info]: frame B:98922 Avg QP:21.71  size:  3137

General
Unique ID                                : 222032169498978630289932160265419135858 (0xA709D72381A2CFAC4C8453A50DAE9B72)
Complete name                            : C:tempNicky Larson et le parfum de CupidonNicky.Larson.et.le.parfum.de.Cupidon.2018.BDRip.x264.Rus.stalkerok.New-Team..mkv
Format                                   : Matroska
Format version                           : Version 4
File size                                : 746 MiB
Duration                                 : 1 h 31 min
Overall bit rate                         : 1 143 kb/s
Movie name                               : Nicky Larson et le parfum de Cupidon (2018) | Rip by stalkerok
Encoded date                             : UTC 2019-07-06 16:29:48
Writing application                      : mkvmerge v33.1.0 ('Primrose') 64-bit
Writing library                          : libebml v1.3.7 + libmatroska v1.5.0

Video
ID                                       : 1
Format                                   : AVC
Format/Info                              : Advanced Video Codec
Format profile                           : High@L4.1
Format settings                          : CABAC / 12 Ref Frames
Format settings, CABAC                   : Yes
Format settings, RefFrames               : 12 frames
Codec ID                                 : V_MPEG4/ISO/AVC
Duration                                 : 1 h 31 min
Bit rate                                 : 1 078 kb/s
Width                                    : 874 pixels
Height                                   : 366 pixels
Display aspect ratio                     : 2.40:1
Frame rate mode                          : Constant
Frame rate                               : 24.000 FPS
Color space                              : YUV
Chroma subsampling                       : 4:2:0
Bit depth                                : 8 bits
Scan type                                : Progressive
Bits/(Pixel*Frame)                       : 0.140
Stream size                              : 703 MiB (94%)
Title                                    : Nicky Larson et le parfum de Cupidon (2018) | Rip by stalkerok
Writing library                          : x264 core 157 r2945 72db437
Encoding settings                        : cabac=1 / ref=12 / deblock=1:-2:-1 / analyse=0x3:0x133 / me=umh / subme=10 / psy=1 / psy_rd=1.00:0.00 / mixed_ref=1 / me_range=32 / chroma_me=1 / trellis=2 / 8x8dct=1 / cqm=0 / deadzone=21,11 / fast_pskip=0 / chroma_qp_offset=-2 / threads=11 / lookahead_threads=2 / sliced_threads=0 / nr=0 / decimate=0 / interlaced=0 / bluray_compat=0 / constrained_intra=0 / bframes=16 / b_pyramid=2 / b_adapt=2 / b_bias=0 / direct=3 / weightb=1 / open_gop=0 / weightp=2 / keyint=240 / keyint_min=23 / scenecut=40 / intra_refresh=0 / rc_lookahead=60 / rc=2pass / mbtree=0 / bitrate=1078 / ratetol=1.0 / qcomp=0.65 / qpmin=0 / qpmax=69 / qpstep=4 / cplxblur=20.0 / qblur=0.5 / vbv_maxrate=50000 / vbv_bufsize=62500 / nal_hrd=none / filler=0 / ip_ratio=1.40 / pb_ratio=1.30 / aq=3:0.92 / zones=127455,131398,q=34
Default                                  : Yes
Forced                                   : No

Audio
ID                                       : 2
Format                                   : AAC LC SBR
Format/Info                              : Advanced Audio Codec Low Complexity with Spectral Band Replication
Commercial name                          : HE-AAC
Format settings                          : Explicit
Codec ID                                 : A_AAC-2
Duration                                 : 1 h 31 min
Bit rate                                 : 64.0 kb/s
Channel(s)                               : 2 channels
Channel layout                           : L R
Sampling rate                            : 48.0 kHz
Frame rate                               : 23.438 FPS (2048 SPF)
Compression mode                         : Lossy
Delay relative to video                  : 31 ms
Stream size                              : 41.8 MiB (6%)
Language                                 : Russian
Default                                  : Yes
Forced                                   : No

Text
ID                                       : 3
Format                                   : UTF-8
Codec ID                                 : S_TEXT/UTF8
Codec ID/Info                            : UTF-8 Plain Text
Duration                                 : 1 h 30 min
Bit rate                                 : 77 b/s
Count of elements                        : 1188
Stream size                              : 51.4 KiB (0%)
Title                                    : Full
Language                                 : Russian
Default                                  : No
Forced                                   : No

Menu
00:00:00.000                             : en:Chapter 01
00:06:35.542                             : en:Chapter 02
00:17:02.208                             : en:Chapter 03
00:26:28.583                             : en:Chapter 04
00:33:25.500                             : en:Chapter 05
00:40:12.375                             : en:Chapter 06
00:48:23.792                             : en:Chapter 07
00:53:50.375                             : en:Chapter 08
01:04:50.708                             : en:Chapter 09
01:09:02.292                             : en:Chapter 10
01:20:15.667                             : en:Chapter 11
01:28:28.292                             : en:Chapter 12




Скриншоты:
[+] Всего файлов в раздаче - 1:
Nicky.Larson.et.le.parfum.de.Cupidon.2018.BDRip.x264.Rus.stalkerok.New-Team..mkv746.41 MB

Показать еще раздачи по запросу плейбой:
2019-07-08 U Плейбой под прикрытием / Nicky Larson et le parfum de Cupidon (2018) BDRip-HEVC 1080p | iTunes 4.26 GB ↑ 112 ↓ 57
2019-07-07 U Плейбой под прикрытием / Nicky Larson et le parfum de Cupidon (2018) BDRip-AVC от ExKinoRay | iTunes 2.25 GB ↑ 31 ↓ 7
2019-07-07 U Плейбой под прикрытием / Nicky Larson et le parfum de Cupidon (2018) BDRip-AVC от ExKinoRay | iTunes 743.93 MB ↑ 21 ↓ 15
2019-07-07 U Плейбой под прикрытием / Nicky Larson et le parfum de Cupidon (2018) BDRip от Twister & ExKinoRay | iTunes 1.42 GB ↑ 81 ↓ 18
2019-07-06 U Плейбой под прикрытием / Nicky Larson et le parfum de Cupidon (2018) BDRip-AVC от New-Team | D 1.48 GB ↑ 85 ↓ 39
2019-07-06 U Плейбой под прикрытием / Nicky Larson et le parfum de Cupidon (2018) BDRemux 1080p от селезень | iTunes 17.85 GB ↑ 60 ↓ 65
2019-07-06 U Плейбой под прикрытием / Nicky Larson et le parfum de Cupidon (2018) BDRip 720p от селезень | iTunes 1К3.82 GB ↑ 230 ↓ 132

Отзывы
Зарегистрируйтесь чтобы добавить комментарий.
Обратная связь
Copyleft ©