↑↓Torrent.by
Поиск
Логин: Регистрация
Пароль: Восстановить пароль
Загрузка...

Шазам! / Shazam! (2019) BDRip-HEVC 1080p | Лицензия

Скачать shazam-2019-bdrip-hevc-1080p-licenziya.torrent
U Магнитная ссылка Размер: 5.97 GB Раздают: 177 Качают: 114 Добавлен: 2019-07-07 19:01:27
Шазам! / Shazam! (2019) BDRip-HEVC 1080p | Лицензия

Название: Шазам!
Оригинальное название: Shazam!
Год выхода: 2019
Жанр: Фэнтези, боевик, комедия, приключения
Режиссер: Дэвид Ф. Сандберг
В ролях: Закари Ливай, Эшер Энджел, Мишель Борт, Джимон Хонсу, Грэйс Фултон, Марк Стронг, Джек Дилан Грейзер, Марта Миланс, Мэган Гуд, Адам Броди, Фэйти Херман, Йен Чен, Росс Батлер, Йован Арман, Д.Дж. Котрона, Купер Эндрюс, Итан Пуджиотто, Джон Гловер, Кэролайн Палмер, Эмили Никсон, Лотта Лостен, Ивэн Марш, Миша Расайя

О фильме:
В каждом из нас живет супергерой, нужна лишь толика магии, чтобы он проявил себя. Билли Бэтсон должен прокричать всего лишь одно слово — ШАЗАМ! — чтобы из сообразительного четырнадцатилетнего мальчишки превратиться во вполне себе взрослого супергероя Шазама, а все благодаря древнему волшебнику. В душе он остается ребенком, пусть и во взрослом могучем теле, поэтому поступает так, как поступил бы любой подросток, получивший сверхспособности, — оттягивается на полную катушку в этой подросшей версии себя самого! А умеет ли он летать? А есть ли у него рентгеновское зрение? Может ли он стрелять молниями из рук? А может ли пропустить контрольную по обществознанию? Шазам проверяет границы своих возможностей с бесшабашностью расшалившегося ребенка.

 
Страна: США
Продолжительность: 02:11:43
Перевод: Дублированный | Лицензия Blu-Ray EUR

Файл
Кодек: H.265
Качество: BDRip-HEVC 1080p
Видео: HEVC/H.265, 1920x804, ~5915 kbps, 10bit
Звук: AC3, 6 ch, 448 kbps
Субтитры: Русские (форс., полные)


[+] MI
Полное имя                               : J:СборкаШазам! - Shazam! [2019] 1080p 10bit BluRay HEVC.mkv
Формат                                   : Matroska
Версия формата                           : Version 4 / Version 2
Размер файла                             : 5,97 Гбайт
Продолжительность                        : 2 ч. 11 м.
Общий поток                              : 6493 Кбит/сек
Название фильма                          : Shazam! (2019)
Дата кодирования                         : UTC 2019-06-30 16:57:58
Программа кодирования                    : mkvmerge v7.3.0 ('Nouages') 64bit built on Oct 22 2014 18:53:34
Библиотека кодирования                   : libebml v1.3.0 + libmatroska v1.4.1
DURATION                                 : 02:10:50.258000000
NUMBER_OF_FRAMES                         : 1756
NUMBER_OF_BYTES                          : 64418
_STATISTICS_WRITING_APP                  : mkvmerge v7.3.0 ('Nouages') 64bit built on Oct 22 2014 18:53:34
_STATISTICS_WRITING_DATE_UTC             : 2019-06-30 16:57:58
_STATISTICS_TAGS                         : BPS DURATION NUMBER_OF_FRAMES NUMBER_OF_BYTES

Видео
Идентификатор                            : 1
Формат                                   : HEVC
Формат/Информация                        : High Efficiency Video Coding
Профиль формата                          : Main 10@L4@Main
Идентификатор кодека                     : V_MPEGH/ISO/HEVC
Продолжительность                        : 2 ч. 11 м.
Битрейт                                  : 5915 Кбит/сек
Ширина                                   : 1920 пикселей
Высота                                   : 804 пикселя
Соотношение сторон                       : 2,40:1
Режим частоты кадров                     : Постоянный
Частота кадров                           : 23,976 кадра/сек
Цветовое пространство                    : YUV
Субдискретизация насыщенности            : 4:2:0
Битовая глубина                          : 10 бит
Бит/(Пиксели*Кадры)                      : 0.160
Размер потока                            : 5,44 Гбайт (91%)
Библиотека кодирования                   : x265 3.1+1-dcd4c18582fb:[Windows][GCC 9.1.0][64 bit] 10bit
Настройки программы                      : cpuid=1111039 / frame-threads=3 / numa-pools=12 / wpp / no-pmode / no-pme / no-psnr / ssim / log-level=2 / input-csp=1 / input-res=1920x804 / interlace=0 / total-frames=189485 / level-idc=0 / high-tier=1 / uhd-bd=0 / ref=3 / no-allow-non-conformance / no-repeat-headers / annexb / no-aud / no-hrd / info / hash=0 / no-temporal-layers / open-gop / min-keyint=23 / keyint=250 / gop-lookahead=0 / bframes=8 / b-adapt=2 / b-pyramid / bframe-bias=0 / rc-lookahead=80 / lookahead-slices=5 / scenecut=40 / radl=0 / no-splice / no-intra-refresh / ctu=64 / min-cu-size=8 / no-rect / no-amp / max-tu-size=32 / tu-inter-depth=1 / tu-intra-depth=1 / limit-tu=0 / rdoq-level=2 / dynamic-rd=0.00 / no-ssim-rd / signhide / no-tskip / nr-intra=0 / nr-inter=0 / no-constrained-intra / no-strong-intra-smoothing / max-merge=3 / limit-refs=1 / no-limit-modes / me=3 / subme=5 / merange=57 / temporal-mvp / weightp / no-weightb / no-analyze-src-pics / deblock=0:0 / sao / no-sao-non-deblock / rd=3 / early-skip / no-rskip / no-fast-intra / no-tskip-fast / no-cu-lossless / b-intra / no-splitrd-skip / rdpenalty=0 / psy-rd=2.00 / psy-rdoq=1.00 / no-rd-refine / no-lossless / cbqpoffs=0 / crqpoffs=0 / rc=crf / crf=20.0 / qcomp=0.60 / qpstep=4 / stats-write=0 / stats-read=0 / ipratio=1.40 / pbratio=1.30 / aq-mode=3 / aq-strength=1.00 / cutree / zone-count=0 / no-strict-cbr / qg-size=32 / no-rc-grain / qpmax=69 / qpmin=0 / no-const-vbv / sar=0 / overscan=0 / videoformat=5 / range=0 / colorprim=2 / transfer=2 / colormatrix=2 / chromaloc=0 / display-window=0cll=0,0 / min-luma=0 / max-luma=1023 / log2-max-poc-lsb=8 / vui-timing-info / vui-hrd-info / slices=1 / no-opt-qp-pps / no-opt-ref-list-length-pps / no-multi-pass-opt-rps / scenecut-bias=0.05 / no-opt-cu-delta-qp / no-aq-motion / no-hdr / no-hdr-opt / no-dhdr10-opt / no-idr-recovery-sei / analysis-reuse-level=5 / scale-factor=0 / refine-intra=0 / refine-inter=0 / refine-mv=0 / refine-ctu-distortion=0 / no-limit-sao / ctu-info=0 / no-lowpass-dct / refine-analysis-type=0 / copy-pic=1 / max-ausize-factor=1.0 / no-dynamic-refine / no-single-sei / no-hevc-aq / no-svt / no-field / qp-adaptation-range=1.00
Default                                  : Да
Forced                                   : Нет

Аудио
Идентификатор                            : 2
Формат                                   : AC-3
Формат/Информация                        : Audio Coding 3
Расширение режима                        : CM (complete main)
Параметр Endianness формата              : Big
Идентификатор кодека                     : A_AC3
Продолжительность                        : 2 ч. 11 м.
Вид битрейта                             : Постоянный
Битрейт                                  : 448 Кбит/сек
Каналы                                   : 6 каналов
Расположение каналов                     : Front: L C R, Side: L R, LFE
Частота                                  : 48,0 КГц
Битовая глубина                          : 16 бит
Метод сжатия                             : С потерями
Размер потока                            : 422 Мбайт (7%)
Заголовок                                : Dub | DD 5.1 @ 448 kbps - Blu-ray CEE
Язык                                     : Russian
Default                                  : Да
Forced                                   : Да

Текст #1
Идентификатор                            : 3
Формат                                   : UTF-8
Идентификатор кодека                     : S_TEXT/UTF8
Идентификатор кодека/Информация          : UTF-8 Plain Text
Заголовок                                : Forced
Язык                                     : Russian
Default                                  : Да
Forced                                   : Да

Текст #2
Идентификатор                            : 4
Формат                                   : UTF-8
Идентификатор кодека                     : S_TEXT/UTF8
Идентификатор кодека/Информация          : UTF-8 Plain Text
Заголовок                                : Full
Язык                                     : Russian
Default                                  : Нет
Forced                                   : Нет



Скриншоты:
[+] Всего файлов в раздаче - 1:
Шазам! - Shazam! [2019] 1080p 10bit BluRay HEVC.mkv5.97 GB

Показать еще раздачи по запросу шазам:
2019-07-16 U Шазам! / Shazam! (2019) BDRip 1080p от Ash61 | 3D-Video | halfOU | Лицензия 14.06 GB ↑ 41 ↓ 31
2019-07-07 U Шазам! / Shazam! (2018) BDRip от HQ-ViDEO | Лицензия 2.18 GB ↑ 233 ↓ 70
2019-07-03 U Шазам! / Shazam! (2019) BDRip 1080p от qqss44 & MegaPeer | Лицензия 7.75 GB ↑ 128 ↓ 49
2019-07-02 U Шазам! / Shazam! (2019) BDRip-HEVC 1080p | Лицензия 11.00 GB ↑ 113 ↓ 42
2019-06-29 U Шазам! / Shazam! (2019) BDRip от Twister & ExKinoRay | Лицензия 1.47 GB ↑ 177 ↓ 48
2019-06-29 U Шазам! / Shazam! (2019) BDRip от Twister & ExKinoRay | Лицензия 2.18 GB ↑ 373 ↓ 90
2019-06-29 U Шазам! / Shazam! (2019) HDRip от Scarabey | Лицензия 792.87 MB ↑ 71 ↓ 20

Отзывы
Зарегистрируйтесь чтобы добавить комментарий.
Обратная связь
Copyleft ©