↑↓Torrent.by
Поиск
Логин: Регистрация
Пароль: Восстановить пароль
Загрузка...

Там, где нас нет [01-02 из 02] (2017) WEBRip от GeneralFilm

Скачать tam-gde-nas-net-01-02-iz-2017-webrip-ot-generalfilm.torrent
U Магнитная ссылка Размер: 2.18 GB Раздают: 80 Качают: 26 Добавлен: 2019-07-07 19:02:16
Там, где нас нет [01-02 из 02] (2017) WEBRip от GeneralFilm

Оригинальное название: Там, где нас нет
Год выпуска: 2017
Жанр:  Мелодрама
Выпущено: Россия, ООО Тесей Продакшен, Медиа-Арена
Режиссер: Дмитрий Сорокин
В ролях: Анна Миклош, Владислав Резник, Марина Дуксова, Александр Кудренко, Дарья Кукарских, Артём Вершинин, Ирина Соколова (II), Ирина Соколова, Михаил Сакулин, Катарина Савченко

О фильме: Когда у отца Юли начинаются проблемы с бизнесом, он перевозит семью из Санкт-Петербурга в Выборг. Юля оказывается в новой школе, но одноклассники принимают ее в штыки. Она сходится с Темой и Фредом, которые оказываются членами странной сетевой группы. Руководит группой по сети некий неизвестный человек Гурд. Они проводят акции, призванные проучить заносчивых одноклассников. Но шалости новых друзей вскоре перестают быть невинными. Юля решает уйти из группы, но оказывается, что уже поздно. Под прицелом теперь уже не школьники-подростки, а их родители…

Качество: WEBRip
Видео: XviD build 73, 720x400 (16:9), 25.000 fps, ~ 1360 Kbps (~ 0.183 bit/pixel)
Аудио: 48.0 kHz, AC3, 2/0 ch, 192 kbps
Продолжительность: 2 x ~ 01:39:00
Перевод: Не требуется [Русский]
Cубтитры: нет

Релиз:


[+] MediaInfo
General
Complete name               : D:RazdachiTam.Gde.Nas.Net.2017.WEBRip.GeneralFilme01.Tam.Gde.Nas.Net.avi
Format                      : AVI
Format/Info                 : Audio Video Interleave
File size                   : 1.10 GiB
Duration                    : 1 h 41 min
Overall bit rate            : 1 561 kb/s
Writing application         : VirtualDubMod 1.5.10.3 | www.virtualdub-fr.org || (build 2550/release)
Writing library             : VirtualDubMod build 2550/release

Video
ID                          : 0
Format                      : MPEG-4 Visual
Format profile              : Advanced Simple@L5
Format settings             : BVOP1 / Custom Matrix
Format settings, BVOP       : 1
Format settings, QPel       : No
Format settings, GMC        : No warppoints
Format settings, Matrix     : Custom
Codec ID                    : XVID
Codec ID/Hint               : XviD
Duration                    : 1 h 41 min
Bit rate                    : 1 359 kb/s
Width                       : 720 pixels
Height                      : 400 pixels
Display aspect ratio        : 16:9
Frame rate                  : 25.000 FPS
Color space                 : YUV
Chroma subsampling          : 4:2:0
Bit depth                   : 8 bits
Scan type                   : Progressive
Compression mode            : Lossy
Bits/(Pixel*Frame)          : 0.189
Stream size                 : 985 MiB (87%)
Writing library             : XviD 73

Audio
ID                          : 1
Format                      : AC-3
Format/Info                 : Audio Coding 3
Commercial name             : Dolby Digital
Codec ID                    : 2000
Duration                    : 1 h 41 min
Bit rate mode               : Constant
Bit rate                    : 192 kb/s
Channel(s)                  : 2 channels
Channel layout              : L R
Sampling rate               : 48.0 kHz
Frame rate                  : 31.250 FPS (1536 SPF)
Bit depth                   : 16 bits
Compression mode            : Lossy
Stream size                 : 139 MiB (12%)
Alignment                   : Split accross interleaves
Interleave, duration        : 40  ms (1.00 video frame)
Interleave, preload duratio : 500  ms
Service kind                : Complete Main



Скриншоты:
[+] Всего файлов в раздаче - 2:
e01.Tam.Gde.Nas.Net.avi1.10 GB
e02.Tam.Gde.Nas.Net.avi1.07 GB

Показать еще раздачи по запросу webrip:
Сегодня U К жизни / Ad Vitam [S01] (2018) WEBRip 720p | ViruseProject 5.72 GB ↑ 34 ↓ 14
Сегодня U Тайная одержимость / Secret Obsession (2019) WEBRip 720p | D 2.66 GB ↑ 70 ↓ 24
Сегодня U Джон Уик 3 / John Wick: Chapter 3 - Parabellum (2019) WEBRip | HDRezka Studio 1.47 GB ↑ 553 ↓ 93
Вчера U Бихэппи [01-04 из 08] (2019) WEBRip 1080p 5.95 GB ↑ 78 ↓ 125
Вчера U Бихэппи [01-04 из 08] (2019) WEBRip 720p от Files-x 4.89 GB ↑ 75 ↓ 160
Вчера U Бихэппи [01-04 из 08] (2019) WEBRip от Generalfilm 2.18 GB ↑ 82 ↓ 163
Вчера U В клетке [01-06 из 10] (2019) WEBRip 720p от Files-x 8.69 GB ↑ 60 ↓ 158

Отзывы
Зарегистрируйтесь чтобы добавить комментарий.
Обратная связь
Copyleft ©