↑↓Torrent.by
Поиск
Логин: Регистрация
Пароль: Восстановить пароль
Загрузка...

Последний из Могикан / The Last of the Mohicans (1992) BDRip 1080p | P | Director's Definitive Cut

Скачать posledniy-iz-mogikan-the-last-of-mohicans-1992-bdrip-1080p-p-director-s-definitive-cut.torrent
U Магнитная ссылка Размер: 7.94 GB Раздают: 31 Качают: 15 Добавлен: 2019-07-08 05:43:04
Последний из Могикан / The Last of the Mohicans (1992) BDRip 1080p | P | Director's Definitive Cut

Название: Последний из Могикан
Оригинальное название: The Last of the Mohicans
Год выхода: 1992
Жанр: Боевик, мелодрама, приключения, военный
Режиссер: Майкл Манн
В ролях: Дэниэл Дэй-Льюис, Мэдлин Стоу, Рассел Минс, Эрик Швейг, Джоди Мей, Стивен Вэддингтон, Уэс Студи, Морис Роевз, Патрис Шеро, Эдвард Блэтчфорд
О фильме:
1757 год. Англо-французская война за американские колонии в самом разгаре. Дочери полковника Манро пытаются пробраться в осажденный французами английский форт. Им на помощь приходит молодой белый охотник Соколиный Глаз. Между Соколиным Глазом, выросшим среди индейцев племени могикан, и старшей из дочерей, утонченной Корой, вспыхивает взаимное чувство.
Но Кора и ее сестра попадают в плен к союзникам французов - гуронам, и от мучительной смерти их могут спасти только Соколиный Глаз и его верные друзья - индейцы…
 
Выпущено: США / 20th Century Fox, Morgan Creek Productions
Продолжительность: 01:54:13
Перевод: Профессиональный многоголосый
Файл
Кодек: MPEG-4 AVC
Качество: BDRip 1080p
Видео: 1920x800, 23.976 fps, 9104 kbps
Звук:
Russian: AC3, 384 Kbps (6 ch) Профессиональный многоголосый
English: AC3, 448 Kbps (6 ch) Original
Субтитры: Russian (forced, full), English
Семпл

Релиз:


[+] MediaInfo & x264

Общее
Уникальный идентификатор                 : 196912676261021871589667610069636209739 (0x94240080B7581A5DB37E536A8997DC4B)
Полное имя                               : The.Last.of.the.Mohicans.1992.х264.BDRip.1080p.mkv
Формат                                   : Matroska
Версия формата                           : Version 2
Размер файла                             : 7,94 Гбайт
Продолжительность                        : 1 ч. 54 м.
Общий поток                              : 9925 Кбит/сек
Название фильма                          : ☭WIDDER☭
Дата кодирования                         : UTC 2013-03-26 19:34:37
Программа кодирования                    : mkvmerge v4.5.0 ('Speed of Light') сборка от Feb  1 2011 02:10:32
Библиотека кодирования                   : libebml v1.2.0 + libmatroska v1.1.0

Видео
Идентификатор                            : 1
Формат                                   : AVC
Формат/Информация                        : Advanced Video Codec
Профиль формата                          : High@L4.1
Параметр CABAC формата                   : Да
Параметр ReFrames формата                : 5 кадров
Идентификатор кодека                     : V_MPEG4/ISO/AVC
Продолжительность                        : 1 ч. 54 м.
Битрейт                                  : 9104 Кбит/сек
Ширина                                   : 1920 пикселей
Высота                                   : 800 пикселей
Соотношение сторон                       : 2,40:1
Режим частоты кадров                     : Постоянный
Частота кадров                           : 23,976 кадра/сек
Цветовое пространство                    : YUV
Субдискретизация насыщенности            : 4:2:0
Битовая глубина                          : 8 бит
Тип развёртки                            : Прогрессивная
Бит/(Пиксели*Кадры)                      : 0.247
Размер потока                            : 7,12 Гбайт (90%)
Заголовок                                : The Last of the Mohicans (1992)
Библиотека кодирования                   : x264 core 130 r2273 b3065e6
Настройки программы                      : cabac=1 / ref=5 / deblock=1:-3:-3 / analyse=0x3:0x133 / me=umh / subme=11 / psy=1 / psy_rd=1.00:0.00 / mixed_ref=1 / me_range=48 / chroma_me=1 / trellis=2 / 8x8dct=1 / cqm=0 / deadzone=21,11 / fast_pskip=0 / chroma_qp_offset=-2 / threads=12 / lookahead_threads=1 / sliced_threads=0 / nr=0 / decimate=1 / interlaced=0 / bluray_compat=0 / constrained_intra=0 / bframes=5 / b_pyramid=2 / b_adapt=2 / b_bias=0 / direct=3 / weightb=1 / open_gop=0 / weightp=2 / keyint=240 / keyint_min=23 / scenecut=40 / intra_refresh=0 / rc=2pass / mbtree=0 / bitrate=9104 / ratetol=1.0 / qcomp=0.60 / qpmin=0 / qpmax=69 / qpstep=4 / cplxblur=20.0 / qblur=0.5 / ip_ratio=1.40 / pb_ratio=1.30 / aq=2:0.80
Язык                                     : English
Default                                  : Да
Forced                                   : Нет

Аудио #1
Идентификатор                            : 2
Формат                                   : AC-3
Формат/Информация                        : Audio Coding 3
Расширение режима                        : CM (complete main)
Параметр Endianness формата              : Big
Идентификатор кодека                     : A_AC3
Продолжительность                        : 1 ч. 54 м.
Вид битрейта                             : Постоянный
Битрейт                                  : 384 Кбит/сек
Каналы                                   : 6 каналов
Расположение каналов                     : Front: L C R, Side: L R, LFE
Частота                                  : 48,0 КГц
Битовая глубина                          : 16 бит
Метод сжатия                             : С потерями
Размер потока                            : 315 Мбайт (4%)
Заголовок                                : AC3, 384 Kbps (6 ch) Профессиональный многоголосый
Язык                                     : Russian
Default                                  : Да
Forced                                   : Нет

Аудио #2
Идентификатор                            : 3
Формат                                   : AC-3
Формат/Информация                        : Audio Coding 3
Расширение режима                        : CM (complete main)
Параметр Endianness формата              : Big
Идентификатор кодека                     : A_AC3
Продолжительность                        : 1 ч. 54 м.
Вид битрейта                             : Постоянный
Битрейт                                  : 448 Кбит/сек
Каналы                                   : 6 каналов
Расположение каналов                     : Front: L C R, Side: L R, LFE
Частота                                  : 48,0 КГц
Битовая глубина                          : 16 бит
Метод сжатия                             : С потерями
Размер потока                            : 367 Мбайт (5%)
Заголовок                                : AC3, 448 Kbps (6 ch) Original
Язык                                     : English
Default                                  : Нет
Forced                                   : Нет

Текст #1
Идентификатор                            : 4
Формат                                   : UTF-8
Идентификатор кодека                     : S_TEXT/UTF8
Идентификатор кодека/Информация          : UTF-8 Plain Text
Заголовок                                : forced
Язык                                     : Russian
Default                                  : Да
Forced                                   : Нет

Текст #2
Идентификатор                            : 5
Формат                                   : UTF-8
Идентификатор кодека                     : S_TEXT/UTF8
Идентификатор кодека/Информация          : UTF-8 Plain Text
Заголовок                                : full
Язык                                     : Russian
Default                                  : Нет
Forced                                   : Нет

Текст #3
Идентификатор                            : 6
Формат                                   : UTF-8
Идентификатор кодека                     : S_TEXT/UTF8
Идентификатор кодека/Информация          : UTF-8 Plain Text
Заголовок                                : full
Язык                                     : English
Default                                  : Нет
Forced                                   : Нет

Меню
00:00:00.000                             : :Chapter 01
00:01:55.365                             : :Chapter 02
00:04:29.060                             : :Chapter 03
00:06:48.241                             : :Chapter 04
00:08:43.272                             : :Chapter 05
00:12:32.960                             : :Chapter 06
00:14:55.102                             : :Chapter 07
00:22:15.667                             : :Chapter 08
00:24:32.929                             : :Chapter 09
00:28:11.940                             : :Chapter 10
00:33:58.411                             : :Chapter 11
00:43:30.316                             : :Chapter 12
00:45:41.739                             : :Chapter 13
00:47:19.378                             : :Chapter 14
00:48:52.888                             : :Chapter 15
00:52:03.578                             : :Chapter 16
00:54:33.353                             : :Chapter 17
00:57:42.667                             : :Chapter 18
01:00:09.522                             : :Chapter 19
01:03:15.291                             : :Chapter 20
01:07:43.726                             : :Chapter 21
01:10:35.022                             : :Chapter 22
01:12:41.065                             : :Chapter 23
01:18:58.775                             : :Chapter 24
01:22:16.890                             : :Chapter 25
01:24:50.543                             : :Chapter 26
01:31:29.609                             : :Chapter 27
01:34:46.806                             : :Chapter 28
01:39:30.130                             : :Chapter 29
01:44:30.931                             : :Chapter 30
01:46:38.517                             : :Chapter 31
01:49:18.385                             : :Chapter 32
____________________________________________
x264 [info]: frame I:1052  Avg QP:16.12  size:178683
x264 [info]: frame P:40145 Avg QP:18.09  size: 80018
x264 [info]: frame B:123591 Avg QP:20.22  size: 35680



Скриншоты:
[+] Всего файлов в раздаче - 1:
The.Last.of.the.Mohicans.1992.х264.BDRip.1080p.mkv7.94 GB

Показать еще раздачи по запросу последний:
2019-06-10 U Игра престолов: Последний дозор / Game of Thrones: The Last Watch (2019) WEB-DLRip-AVC от ExKinoRay | Кравец, HDRezka Studio 2.90 GB ↑ 48 ↓ 24
2019-05-28 U Игра престолов: Последний дозор / Game of Thrones: The Last Watch (2019) WEB-DL 1080p | P 8.09 GB ↑ 135 ↓ 105
2019-05-18 U Последний герой. Актёры против экстрасенсов [эфир от 18.05] (2019) SATRip 722.44 MB ↑ 233 ↓ 34
2019-05-14 U Последний герой [07х01-11] (2019) WEBRip от Files-x 9.24 GB ↑ 27 ↓ 94
2019-05-11 U Последний бой / Танк [01-04 из 04] (2018) WEBRip от Generalfilm | КПК 824.02 MB ↑ 144 ↓ 18
2019-05-10 U Последний бой / Танк [01-04 из 04] (2018) WEBRip-AVC от Files-x 3.32 GB ↑ 66 ↓ 49
2019-05-10 U Последний бой / Танк [01-04 из 04] (2018) WEBRip от Files-x 2.73 GB ↑ 115 ↓ 84

Отзывы
Зарегистрируйтесь чтобы добавить комментарий.
Обратная связь
Copyleft ©