↑↓Torrent.by
Поиск
Логин: Регистрация
Пароль: Восстановить пароль
Загрузка...

Место встречи изменить нельзя (1979) HDTV 1080i

Скачать mesto-vstrechi-izmenit-nelzya-1979-hdtv-1080i.torrent
U Магнитная ссылка Размер: 31.23 GB Раздают: 26 Качают: 47 Добавлен: 2019-07-08 05:43:16
Место встречи изменить нельзя (1979) HDTV 1080i

Название: Место встречи изменить нельзя
Год выхода: 1979
Жанр:  Приключения, криминал, детектив, экранизация
Режиссер: Станислав Говорухин
В ролях: Владимир Высоцкий, Владимир Конкин, Сергей Юрский, Виктор Павлов, Наталья Фатеева, Леонид Куравлёв, Светлана Светличная, Александр Белявский, Евгений Евстигнеев, Армен Джигарханян, Лариса Удовиченко, Станислав Садальский, Валерия Заклунная, Зиновий Гердт, Евгений Леонов-Гладышев

О фильме:
Лето 1945 года. Отгремел салют Великой Победы и страна постепенно возвращается к мирной жизни. Послевоенная Москва только начинает приходить в себя, но преступники уже вовсю развернули свою бурную деятельность. В городе появляется неуловимая банда «Черная кошка», наводя ужас на москвичей. Недавно демобилизовавшийся молодой командир офицер Володя Шарапов, придя по распределению в МУР, приступает к работе в отделе по борьбе с бандитизмом. Начальник отдела капитан Глеб и Шарапов вступают в схватку с бандитами. Первое дело Шарапова – убийство Ларисы Груздевой, но за ними последует череда других дерзких преступлений.

Страна: СССР
Студия: Гостелерадио, Одесская киностудия
Продолжительность: 5 x ~ 01:00:00
Перевод: Не требуется

Файл
Тип релиза: HDTV 1080i
Контейнер: MKV
Видео: MPEG4 Video (H264) 1920x1080 25fps ~13 Mbps
Аудио: MPEG2 Audio 48000Hz stereo 192kbps

СРАВНЕНИЯ ==> DVD*****vs*****HDTV 1080i


[+] M/I
General
Complete name                  : Место встречи изменить нельзя (1979) HDTV 1080i - 02 серия.mkv
Format                         : Matroska
Format version                 : Version 4 / Version 2
File size                      : 6.64 GiB
Duration                       : 1 h 10 min
Overall bit rate               : 13.4 Mb/s
Writing application            : VideoReDo (Lavf57.71.100)
Writing library                : VideoReDo (Lavf57.71.100)
ErrorDetectionType             : Per level 1

Video
ID                             : 1
Format                         : AVC
Format/Info                    : Advanced Video Codec
Format profile                 : High@L4
Format settings                : CABAC / 4 Ref Frames
Format settings, CABAC         : Yes
Format settings, ReFrames      : 4 frames
Codec ID                       : V_MPEG4/ISO/AVC
Duration                       : 1 h 10 min
Bit rate                       : 13.0 Mb/s
Width                          : 1 920 pixels
Height                         : 1 080 pixels
Display aspect ratio           : 16:9
Frame rate mode                : Constant
Frame rate                     : 25.000 FPS
Standard                       : Component
Color space                    : YUV
Chroma subsampling             : 4:2:0
Bit depth                      : 8 bits
Scan type                      : Interlaced
Scan type, store method        : Separated fields
Scan order                     : Top Field First
Bits/(Pixel*Frame)             : 0.250
Stream size                    : 6.41 GiB (97%)
Default                        : No
Forced                         : No
Color range                    : Limited
Color primaries                : BT.709
Transfer characteristics       : BT.709
Matrix coefficients            : BT.709

Audio
ID                             : 2
Format                         : MPEG Audio
Format version                 : Version 1
Format profile                 : Layer 2
Codec ID                       : A_MPEG/L2
Codec ID/Hint                  : MP2
Duration                       : 1 h 10 min
Bit rate mode                  : Constant
Bit rate                       : 192 kb/s
Channel(s)                     : 2 channels
Sampling rate                  : 48.0 kHz
Compression mode               : Lossy
Stream size                    : 97.1 MiB (1%)
Language                       : Russian
Default                        : Yes
Forced                         : No



Скриншоты:
[+] Всего файлов в раздаче - 5:
Место встречи изменить нельзя (1979) HDTV 1080i - 05 серия.mkv6.92 GB
Место встречи изменить нельзя (1979) HDTV 1080i - 02 серия.mkv6.64 GB
Место встречи изменить нельзя (1979) HDTV 1080i - 04 серия.mkv6.62 GB
Место встречи изменить нельзя (1979) HDTV 1080i - 03 серия.mkv6.37 GB
Место встречи изменить нельзя (1979) HDTV 1080i - 01 серия.mkv4.68 GB

Показать еще раздачи по запросу место:
2019-07-08 U Место встречи изменить нельзя (1979) HDTVRip от GeneralFilm 4.34 GB ↑ 80 ↓ 44
2019-04-20 U Место встречи / The Place (2017) BDRip от MegaPeer | RUS-Transfer | Лицензия 1.46 GB ↑ 77 ↓ 18
2019-04-17 U Место встречи / The Place (2017) BDRip 720p | Лицензия 5.97 GB ↑ 175 ↓ 28
2019-04-17 U Место встречи / The Place (2017) BDRip от Twister & ExKinoRay | Лицензия 1.46 GB ↑ 51 ↓ 11
2019-04-17 U Место встречи / The Place (2017) BDRip 1080p | Лицензия 8.80 GB ↑ 47 ↓ 46
2018-12-26 U Закону тут не место / L'ora legale (2017) BDRip от ExKinoRay | iTunes 1.30 GB ↑ 126 ↓ 6
2018-12-24 U Закону тут не место / L'ora legale (2017) HDRip от Scarabey | iTunes 1.37 GB ↑ 90 ↓ 13

Отзывы
Зарегистрируйтесь чтобы добавить комментарий.
Обратная связь
Copyleft ©