↑↓Torrent.by
Поиск
Логин: Регистрация
Пароль: Восстановить пароль
Загрузка...

Красивый, плохой, злой / Extremely Wicked, Shockingly Evil and Vile (2019) BDRip-AVC от OlLanDGroup | P

Скачать krasivyy-plohoy-zloy-extremely-wicked-shockingly-evil-and-vile-2019-bdrip-avc-ot-ollandgroup-p.torrent
U Магнитная ссылка Размер: 1.87 GB Раздают: 115 Качают: 28 Добавлен: 2019-07-08 18:57:03
Красивый, плохой, злой / Extremely Wicked, Shockingly Evil and Vile (2019) BDRip-AVC от OlLanDGroup | P

Красивый, плохой, злой / Extremely Wicked, Shockingly Evil and Vile
«Inspired by True Events»

Год выпуска: 2019
Страна: США
Производство: COTA Films, Ninjas Runnin' Wild Productions, Voltage Pictures
Жанр:  Триллер, драма, криминал, биография

Режиссёр: Джо Берлингер
В ролях: Зак Эфрон, Лили Коллинз, Кая Скоделарио, Джон Малкович, Джеффри Донован, Анджела Сарафян, Джеймс Хетфилд, Брайан Джерати, Джим Парсонс, Хейли Джоэл Осмент

Перевод: Профессиональный многоголосый | [HDRezka Studio]
Субтитры: Русские (форс., полные), Английские (полные, SDH)
Реклама: Отсутствует

Описание: Тед Банди красив и харизматичен, и устоять перед таким невозможно. Очаровательная Элизабет мечтает встретить настоящую любовь. Кажется, до счастья можно дотянуться рукой. Но вот случается непредвиденное: внезапно Теда заключают под стражу, обвинив его в немыслимых по своей жестокости убийствах женщин. Как поверить, что этот нежный, умный и элегантный мужчина — маньяк-убийца? Её родной и милый Тед… Кто он? Нежный муж, любящий отец или самый кровожадный серийный убийца в истории Америки?

Качество: BDRip-AVC | BluRay Disc | |Extremely.Wicked.Shockingly.Evil.And.Vile.2019.MULTi.COMPLETE.BLURAY-GMB|
Продолжительность: 01:50:18

Формат: MKV
Видео кодек: MPEG-4 AVC
Аудио кодек: AC3
Видео: 1024x428 (2.40:1), 23,976 fps, x264 ~1 792 kbps avg, 0.171 bit/pixel
Аудио #1: 48 kHz, AC3 Dolby Digital, 2 (L,R) ch, ~192.00 kbps avg | RUS (HDRezka Studio)
Аудио #2: 48 kHz, AC3 Dolby Digital, 3/2 (L,C,R,l,r) + LFE ch, ~448.00 kbps avg | ENG

Дата премьеры (мир): 26 января 2019
Дата премьеры (РФ): 23 мая 2019, «Каскад фильм»
Цифровой релиз:

Релиз:


[+] MediaInfo

Общее
Уникальный идентификатор                 : 162447052032562569179267260648821448741 (0x7A362A084530AA562A5F580231FD6025)
Полное имя                               : F:OlLanDGroupExtremely.Wicked.Shockingly.Evil.And.Vile.2019.BDRip(AVC).OlLanDGroup.mkv
Формат                                   : Matroska
Версия формата                           : Version 4 / Version 2
Размер файла                             : 1,87 Гбайт
Продолжительность                        : 1 ч. 50 м.
Общий поток                              : 2428 Кбит/сек
Название фильма                          : Extremely.Wicked.Shockingly.Evil.And.Vile.2019   #TorpedoUK#
Дата кодирования                         : UTC 2019-07-07 23:59:50
Программа кодирования                    : mkvmerge v29.0.0 ('Like It Or Not') 64-bit
Библиотека кодирования                   : libebml v1.3.6 + libmatroska v1.4.9

Видео
Идентификатор                            : 1
Формат                                   : AVC
Формат/Информация                        : Advanced Video Codec
Профиль формата                          : High@L4.1
Параметр CABAC формата                   : Да
Параметр ReFrames формата                : 10 кадров
Идентификатор кодека                     : V_MPEG4/ISO/AVC
Продолжительность                        : 1 ч. 50 м.
Битрейт                                  : 1792 Кбит/сек
Ширина                                   : 1024 пикселя
Высота                                   : 428 пикселей
Соотношение сторон                       : 2,40:1
Режим частоты кадров                     : Постоянный
Частота кадров                           : 23,976 (24000/1001) кадра/сек
Цветовое пространство                    : YUV
Субдискретизация насыщенности            : 4:2:0
Битовая глубина                          : 8 бит
Тип развёртки                            : Прогрессивная
Бит/(Пиксели*Кадры)                      : 0.171
Размер потока                            : 1,38 Гбайт (74%)
Библиотека кодирования                   : x264 core 146 r2538 121396c
Настройки программы                      : cabac=1 / ref=10 / deblock=1:-3:-3 / analyse=0x3:0x113 / me=umh / subme=11 / psy=1 / psy_rd=1.00:0.03 / mixed_ref=1 / me_range=48 / chroma_me=1 / trellis=2 / 8x8dct=1 / cqm=0 / deadzone=21,11 / fast_pskip=1 / chroma_qp_offset=-3 / threads=6 / lookahead_threads=1 / sliced_threads=0 / nr=0 / decimate=1 / interlaced=0 / bluray_compat=0 / constrained_intra=0 / bframes=11 / b_pyramid=2 / b_adapt=2 / b_bias=0 / direct=3 / weightb=1 / open_gop=0 / weightp=2 / keyint=240 / keyint_min=23 / scenecut=40 / intra_refresh=0 / rc_lookahead=40 / rc=2pass / mbtree=0 / bitrate=1792 / ratetol=1.0 / qcomp=0.60 / qpmin=0 / qpmax=69 / qpstep=4 / cplxblur=20.0 / qblur=0.5 / vbv_maxrate=50000 / vbv_bufsize=62500 / nal_hrd=none / filler=0 / ip_ratio=1.40 / pb_ratio=1.30 / aq=1:1.00
Язык                                     : English
Default                                  : Да
Forced                                   : Нет

Аудио #1
Идентификатор                            : 2
Формат                                   : AC-3
Формат/Информация                        : Audio Coding 3
Расширение режима                        : CM (complete main)
Параметр Endianness формата              : Big
Идентификатор кодека                     : A_AC3
Продолжительность                        : 1 ч. 50 м.
Вид битрейта                             : Постоянный
Битрейт                                  : 192 Кбит/сек
Каналы                                   : 2 канала
Расположение каналов                     : Front: L R
Частота                                  : 48,0 КГц
Частота кадров                           : 31,250 кадров/сек (1536 spf)
Битовая глубина                          : 16 бит
Метод сжатия                             : С потерями
Размер потока                            : 151 Мбайт (8%)
Заголовок                                : MVO [HDRezka Studio]
Язык                                     : Russian
Default                                  : Да
Forced                                   : Нет

Аудио #2
Идентификатор                            : 3
Формат                                   : AC-3
Формат/Информация                        : Audio Coding 3
Расширение режима                        : CM (complete main)
Параметр Endianness формата              : Big
Идентификатор кодека                     : A_AC3
Продолжительность                        : 1 ч. 50 м.
Вид битрейта                             : Постоянный
Битрейт                                  : 448 Кбит/сек
Каналы                                   : 6 каналов
Расположение каналов                     : Front: L C R, Side: L R, LFE
Частота                                  : 48,0 КГц
Частота кадров                           : 31,250 кадров/сек (1536 spf)
Битовая глубина                          : 16 бит
Метод сжатия                             : С потерями
Размер потока                            : 353 Мбайт (18%)
Заголовок                                : [Original]
Язык                                     : English
Default                                  : Нет
Forced                                   : Нет

Текст #1
Идентификатор                            : 4
Формат                                   : UTF-8
Идентификатор кодека                     : S_TEXT/UTF8
Идентификатор кодека/Информация          : UTF-8 Plain Text
Продолжительность                        : 1 ч. 41 м.
Битрейт                                  : 1 бит/сек
Count of elements                        : 20
Размер потока                            : 1,43 Кбайт (0%)
Заголовок                                : Forced
Язык                                     : Russian
Default                                  : Да
Forced                                   : Нет

Текст #2
Идентификатор                            : 5
Формат                                   : UTF-8
Идентификатор кодека                     : S_TEXT/UTF8
Идентификатор кодека/Информация          : UTF-8 Plain Text
Продолжительность                        : 1 ч. 45 м.
Битрейт                                  : 117 бит/сек
Count of elements                        : 1658
Размер потока                            : 90,6 Кбайт (0%)
Заголовок                                : Full
Язык                                     : Russian
Default                                  : Нет
Forced                                   : Нет

Текст #3
Идентификатор                            : 6
Формат                                   : UTF-8
Идентификатор кодека                     : S_TEXT/UTF8
Идентификатор кодека/Информация          : UTF-8 Plain Text
Продолжительность                        : 1 ч. 43 м.
Битрейт                                  : 72 бит/сек
Count of elements                        : 1648
Размер потока                            : 55,1 Кбайт (0%)
Заголовок                                : Full
Язык                                     : English
Default                                  : Нет
Forced                                   : Нет

Текст #4
Идентификатор                            : 7
Формат                                   : UTF-8
Идентификатор кодека                     : S_TEXT/UTF8
Идентификатор кодека/Информация          : UTF-8 Plain Text
Продолжительность                        : 1 ч. 44 м.
Битрейт                                  : 79 бит/сек
Count of elements                        : 1832
Размер потока                            : 61,2 Кбайт (0%)
Заголовок                                : SDH
Язык                                     : English
Default                                  : Нет
Forced                                   : Нет

Меню
00:00:00.000                             : :Глава 01
00:07:39.625                             : :Глава 02
00:15:31.680                             : :Глава 03
00:22:05.407                             : :Глава 04
00:29:57.587                             : :Глава 05
00:36:14.088                             : :Глава 06
00:44:34.922                             : :Глава 07
00:52:50.167                             : :Глава 08
01:00:27.624                             : :Глава 09
01:07:39.430                             : :Глава 10
01:13:04.671                             : :Глава 11
01:20:18.522                             : :Глава 12
01:26:32.020                             : :Глава 13
01:33:11.043                             : :Глава 14
01:42:35.941                             : :Глава 15



Скриншоты:
[+] Всего файлов в раздаче - 1:
Extremely.Wicked.Shockingly.Evil.And.Vile.2019.BDRip(AVC).OlLanDGroup.mkv1.87 GB

Показать еще раздачи по запросу красивый:
Сегодня U Красивый, плохой, злой / Extremely Wicked, Shockingly Evil and Vile (2019) BDRip 720p от ExKinoRay | iTunes, P 6.48 GB ↑ 45 ↓ 10
Вчера U Красивый, плохой, злой / Extremely Wicked, Shockingly Evil and Vile (2019) BDRip от MegaPeer | iTunes 1.41 GB ↑ 88 ↓ 30
Вчера U Красивый, плохой, злой / Extremely Wicked, Shockingly Evil and Vile (2019) BDRip-AVC от OlLanDGroup | D, P | iTunes 2.17 GB ↑ 8 ↓ 17
Вчера U Красивый, плохой, злой / Extremely Wicked, Shockingly Evil and Vile (2019) BDRip 720p | D, P | iTunes 4.11 GB ↑ 33 ↓ 23
Вчера U Красивый, плохой, злой / Extremely Wicked, Shockingly Evil and Vile (2019) BDRip | iTunes 1.46 GB ↑ 77 ↓ 20
Вчера U Красивый, плохой, злой / Extremely Wicked, Shockingly Evil and Vile (2019) BDRip 1080p | D, P | iTunes 7.64 GB ↑ 98 ↓ 51
2019-07-07 U Красивый, плохой, злой / Extremely Wicked, Shockingly Evil and Vile (2019) BDRip от MegaPeer | HDRezka Studio 1.46 GB ↑ 295 ↓ 21

Отзывы
Зарегистрируйтесь чтобы добавить комментарий.
Обратная связь
Copyleft ©