↑↓Torrent.by
Поиск
Логин: Регистрация
Пароль: Восстановить пароль
Загрузка...

Плейбой под прикрытием / Nicky Larson et le parfum de Cupidon (2018) BDRip-HEVC 1080p | iTunes

Скачать pleyboy-pod-prikrytiem-nicky-larson-et-le-parfum-de-cupidon-2018-bdrip-hevc-1080p-itunes.torrent
U Магнитная ссылка Размер: 4.26 GB Раздают: 144 Качают: 57 Добавлен: 2019-07-08 18:57:07
Плейбой под прикрытием / Nicky Larson et le parfum de Cupidon (2018) BDRip-HEVC 1080p | iTunes

Год выхода:  2018
Страна: Франция
Жанр:  Боевик, комедия, криминал
Продолжительность: 01:31:15
Перевод: Дублированный  (iTunes)

Режиссер: Филипп Лашо
В главных ролях:  Филипп Лашо, Элоди Фонтан, Тарек Будали, Жюльен Аррути, Дидье Бурдон, Памела Андерсон, Жерар Жюньо, Камел Генфу, Одри Лами, Шанталь Ладезу

Описание: Частный детектив (и ловелас по совместительству), известный как Городской Охотник, получает на руки запутанное дело. По просьбе своей эффектной и неприступной напарницы сыщик соглашается взяться за работу. Теперь плейбою под прикрытием предстоит отправиться в Монако — на территорию больших денег и красивых женщин…

Качество: BDRip 1080p
Видео: HEVC/H.265, 1920x804, ~5464 Kbps
Аудио 1: AC3, 6 ch, 384 Kbps - Дублированный (русский)
Аудио 2: AC3, 6 ch, 384 Kbps - Дублированный (украинский)
Аудио 3: AC3, 6 ch, 448 Kbps - Английский
Субтитры: Русские, французские


[+] Mediainfo
General
Unique ID                      : 245312395605539506832506612597041242468 (0xB88D72E75960D2D82794E9A61DA1A164)
Complete name                  : C:Nicky Larson et le parfum de Cupidonnicky larson et le parfum de Cupidon hevc 1080p.mkv
Format                         : Matroska
Format version                 : Version 4 / Version 2
File size                      : 4.26 GiB
Duration                       : 1 h 31 min
Overall bit rate               : 6 682 kb/s
Movie name                     : Nicky Larson et le parfum de Cupidon
Encoded date                   : UTC 2019-07-06 18:43:22
Writing application            : mkvmerge v27.0.0 ('Metropolis') 64-bit
Writing library                : libebml v1.3.6 + libmatroska v1.4.9

Video
ID                             : 1
Format                         : HEVC
Format/Info                    : High Efficiency Video Coding
Format profile                 : Main@L4@High
Codec ID                       : V_MPEGH/ISO/HEVC
Duration                       : 1 h 31 min
Bit rate                       : 5 464 kb/s
Width                          : 1 920 pixels
Height                         : 804 pixels
Display aspect ratio           : 2.40:1
Frame rate mode                : Constant
Frame rate                     : 24.000 FPS
Color space                    : YUV
Chroma subsampling             : 4:2:0
Bit depth                      : 8 bits
Bits/(Pixel*Frame)             : 0.147
Stream size                    : 3.48 GiB (82%)
Title                          : Nicky Larson et le parfum de Cupidon (2018) - Encoded by Immortel
Writing library                : x265 3.1+1-dcd4c18582fb:[Windows][MSVC 1921][64 bit] 8bit+10bit+12bit
Encoding settings              : cpuid=1111039 / frame-threads=2 / numa-pools=4 / wpp / pmode / no-pme / no-psnr / no-ssim / log-level=2 / input-csp=1 / input-res=1920x804 / interlace=0 / total-frames=131400 / level-idc=40 / high-tier=1 / uhd-bd=0 / ref=4 / no-allow-non-conformance / no-repeat-headers / annexb / aud / hrd / info / hash=0 / no-temporal-layers / no-open-gop / min-keyint=24 / keyint=240 / gop-lookahead=0 / bframes=6 / b-adapt=2 / b-pyramid / bframe-bias=0 / rc-lookahead=60 / lookahead-slices=1 / scenecut=40 / radl=0 / no-splice / no-intra-refresh / ctu=64 / min-cu-size=8 / no-rect / no-amp / max-tu-size=32 / tu-inter-depth=1 / tu-intra-depth=4 / limit-tu=0 / rdoq-level=0 / dynamic-rd=0.00 / no-ssim-rd / signhide / no-tskip / nr-intra=0 / nr-inter=0 / no-constrained-intra / no-strong-intra-smoothing / max-merge=5 / limit-refs=1 / no-limit-modes / me=3 / subme=4 / merange=57 / temporal-mvp / weightp / weightb / no-analyze-src-pics / deblock=0:0 / no-sao / no-sao-non-deblock / rd=4 / early-skip / no-rskip / no-fast-intra / no-tskip-fast / no-cu-lossless / no-b-intra / no-splitrd-skip / rdpenalty=0 / psy-rd=1.00 / psy-rdoq=0.00 / no-rd-refine / no-lossless / cbqpoffs=0 / crqpoffs=0 / rc=crf / crf=18.0 / qcomp=0.60 / qpstep=4 / stats-write=0 / stats-read=0 / vbv-maxrate=30000 / vbv-bufsize=30000 / vbv-init=0.9 / crf-max=0.0 / crf-min=0.0 / ipratio=1.75 / pbratio=1.50 / aq-mode=2 / aq-strength=1.00 / no-cutree / zone-count=0 / no-strict-cbr / qg-size=32 / no-rc-grain / qpmax=69 / qpmin=0 / no-const-vbv / sar=1 / overscan=0 / videoformat=5 / range=0 / colorprim=1 / transfer=1 / colormatrix=1 / chromaloc=0 / display-window=0cll=0,0 / min-luma=0 / max-luma=255 / log2-max-poc-lsb=8 / vui-timing-info / vui-hrd-info / slices=1 / no-opt-qp-pps / no-opt-ref-list-length-pps / no-multi-pass-opt-rps / scenecut-bias=0.05 / no-opt-cu-delta-qp / no-aq-motion / no-hdr / no-hdr-opt / no-dhdr10-opt / no-idr-recovery-sei / analysis-reuse-level=5 / scale-factor=0 / refine-intra=0 / refine-inter=0 / refine-mv=0 / refine-ctu-distortion=0 / no-limit-sao / ctu-info=0 / no-lowpass-dct / refine-analysis-type=0 / copy-pic=1 / max-ausize-factor=1.0 / no-dynamic-refine / no-single-sei / no-hevc-aq / no-svt / no-field / qp-adaptation-range=1.00
Default                        : Yes
Forced                         : Yes
Color range                    : Limited
Color primaries                : BT.709
Transfer characteristics       : BT.709
Matrix coefficients            : BT.709

Audio #1
ID                             : 2
Format                         : AC-3
Format/Info                    : Audio Coding 3
Codec ID                       : A_AC3
Duration                       : 1 h 31 min
Bit rate mode                  : Constant
Bit rate                       : 384 kb/s
Channel(s)                     : 6 channels
Channel positions              : Front: L C R, Side: L R, LFE
Sampling rate                  : 48.0 kHz
Frame rate                     : 31.250 FPS (1536 SPF)
Bit depth                      : 16 bits
Compression mode               : Lossy
Stream size                    : 251 MiB (6%)
Title                          : Dubbing (iTunes)
Language                       : Russian
Service kind                   : Complete Main
Default                        : Yes
Forced                         : Yes

Audio #2
ID                             : 3
Format                         : AC-3
Format/Info                    : Audio Coding 3
Codec ID                       : A_AC3
Duration                       : 1 h 31 min
Bit rate mode                  : Constant
Bit rate                       : 384 kb/s
Channel(s)                     : 6 channels
Channel positions              : Front: L C R, Side: L R, LFE
Sampling rate                  : 48.0 kHz
Frame rate                     : 31.250 FPS (1536 SPF)
Bit depth                      : 16 bits
Compression mode               : Lossy
Stream size                    : 251 MiB (6%)
Title                          : Dubbing (iTunes)
Language                       : Ukrainian
Service kind                   : Complete Main
Default                        : No
Forced                         : No

Audio #3
ID                             : 4
Format                         : AC-3
Format/Info                    : Audio Coding 3
Codec ID                       : A_AC3
Duration                       : 1 h 31 min
Bit rate mode                  : Constant
Bit rate                       : 448 kb/s
Channel(s)                     : 6 channels
Channel positions              : Front: L C R, Side: L R, LFE
Sampling rate                  : 48.0 kHz
Frame rate                     : 31.250 FPS (1536 SPF)
Bit depth                      : 16 bits
Compression mode               : Lossy
Stream size                    : 292 MiB (7%)
Title                          : Original
Language                       : French
Service kind                   : Complete Main
Default                        : No
Forced                         : No

Text #1
ID                             : 5
Format                         : UTF-8
Codec ID                       : S_TEXT/UTF8
Codec ID/Info                  : UTF-8 Plain Text
Duration                       : 1 h 30 min
Bit rate                       : 77 b/s
Count of elements              : 1188
Stream size                    : 51.4 KiB (0%)
Language                       : Russian
Default                        : No
Forced                         : No

Text #2
ID                             : 6
Format                         : UTF-8
Codec ID                       : S_TEXT/UTF8
Codec ID/Info                  : UTF-8 Plain Text
Duration                       : 1 h 30 min
Bit rate                       : 61 b/s
Count of elements              : 1742
Stream size                    : 40.4 KiB (0%)
Language                       : French
Default                        : No
Forced                         : No

Menu
00:00:00.000                   : en:Chapter 01
00:06:35.542                   : en:Chapter 02
00:17:02.208                   : en:Chapter 03
00:26:28.583                   : en:Chapter 04
00:33:25.500                   : en:Chapter 05
00:40:12.375                   : en:Chapter 06
00:48:23.792                   : en:Chapter 07
00:53:50.375                   : en:Chapter 08
01:04:50.708                   : en:Chapter 09
01:09:02.292                   : en:Chapter 10
01:20:15.667                   : en:Chapter 11
01:28:28.292                   : en:Chapter 12



Скриншоты:
[+] Всего файлов в раздаче - 1:
nicky larson et le parfum de Cupidon hevc 1080p.mkv4.26 GB

Показать еще раздачи по запросу плейбой:
2019-09-03 U Плейбой: Горячие губки, горячие ножки / Playboy: Hot Lips Hot Legs (2003) DVDRip 700.40 MB ↑ 88 ↓ 34
2019-07-07 U Плейбой под прикрытием / Nicky Larson et le parfum de Cupidon (2018) BDRip-AVC от New-Team | D 746.41 MB ↑ 84 ↓ 16
2019-07-07 U Плейбой под прикрытием / Nicky Larson et le parfum de Cupidon (2018) BDRip-AVC от ExKinoRay | iTunes 2.25 GB ↑ 33 ↓ 8
2019-07-07 U Плейбой под прикрытием / Nicky Larson et le parfum de Cupidon (2018) BDRip от Twister & ExKinoRay | iTunes 1.42 GB ↑ 89 ↓ 20
2019-07-06 U Плейбой под прикрытием / Nicky Larson et le parfum de Cupidon (2018) BDRip-AVC от New-Team | D 1.48 GB ↑ 88 ↓ 41
2019-07-06 U Плейбой под прикрытием / Nicky Larson et le parfum de Cupidon (2018) BDRemux 1080p от селезень | iTunes 17.85 GB ↑ 74 ↓ 71
2019-07-06 U Плейбой под прикрытием / Nicky Larson et le parfum de Cupidon (2018) BDRip 1080p от селезень | iTunes 3К7.26 GB ↑ 737 ↓ 302

Отзывы
Зарегистрируйтесь чтобы добавить комментарий.
Обратная связь
Copyleft ©