↑↓Torrent.by
Поиск
Логин: Регистрация
Пароль: Восстановить пароль
Загрузка...

Место встречи изменить нельзя (1979) HDTVRip от GeneralFilm

Скачать mesto-vstrechi-izmenit-nelzya-1979-hdtvrip-ot-generalfilm.torrent
U Магнитная ссылка Размер: 4.34 GB Раздают: 77 Качают: 44 Добавлен: 2019-07-08 18:57:36
Место встречи изменить нельзя (1979) HDTVRip от GeneralFilm

Оригинальное название: Место встречи изменить нельзя
Год выпуска: 1979
Жанр:  Приключения, криминал, детектив, экранизация
Выпущено: СССР, Гостелерадио, Одесская киностудия
Режиссер: Станислав Говорухин
В ролях: Владимир Высоцкий, Владимир Конкин, Сергей Юрский, Виктор Павлов, Наталья Фатеева, Леонид Куравлёв, Светлана Светличная, Александр Белявский, Евгений Евстигнеев, Армен Джигарханян, Лариса Удовиченко, Станислав Садальский, Валерия Заклунная, Зиновий Гердт, Евгений Леонов-Гладышев

О фильме: Лето 1945 года. Отгремел салют Великой Победы и страна постепенно возвращается к мирной жизни. Послевоенная Москва только начинает приходить в себя, но преступники уже вовсю развернули свою бурную деятельность. В городе появляется неуловимая банда «Черная кошка», наводя ужас на москвичей. Недавно демобилизовавшийся молодой командир офицер Володя Шарапов, придя по распределению в МУР, приступает к работе в отделе по борьбе с бандитизмом. Начальник отдела капитан Глеб и Шарапов вступают в схватку с бандитами. Первое дело Шарапова – убийство Ларисы Груздевой, но за ними последует череда других дерзких преступлений.

Качество: HDTVRip
Видео: XviD build 73, 720x528 (4:3), 25.000 fps, 1510 Kbps (0.159 bit/pixel)
Аудио: 48.0 kHz, AC3, 2/0 ch, 192 kbps
Продолжительность: 5 x ~ 01:10:00
Перевод: Не требуется [Русский]
Cубтитры: нет

Релиз:


[+] MediaInfo
General
Complete name               : D:RazdachiMesto.Vstrechi.Izmenitj.Neljzja.1979.HDTVRip.GeneralFilme01.Mesto.Vstrechi.avi
Format                      : AVI
Format/Info                 : Audio Video Interleave
File size                   : 818 MiB
Duration                    : 1 h 6 min
Overall bit rate            : 1 712 kb/s
Writing application         : VirtualDubMod 1.5.10.3 | www.virtualdub-fr.org || (build 2550/release)
Writing library             : VirtualDubMod build 2550/release

Video
ID                          : 0
Format                      : MPEG-4 Visual
Format profile              : Advanced Simple@L5
Format settings             : BVOP1 / Custom Matrix
Format settings, BVOP       : 1
Format settings, QPel       : No
Format settings, GMC        : No warppoints
Format settings, Matrix     : Custom
Codec ID                    : XVID
Codec ID/Hint               : XviD
Duration                    : 1 h 6 min
Bit rate                    : 1 510 kb/s
Width                       : 720 pixels
Height                      : 528 pixels
Display aspect ratio        : 4:3
Frame rate                  : 25.000 FPS
Color space                 : YUV
Chroma subsampling          : 4:2:0
Bit depth                   : 8 bits
Scan type                   : Progressive
Compression mode            : Lossy
Bits/(Pixel*Frame)          : 0.159
Stream size                 : 721 MiB (88%)
Writing library             : XviD 73

Audio
ID                          : 1
Format                      : AC-3
Format/Info                 : Audio Coding 3
Commercial name             : Dolby Digital
Codec ID                    : 2000
Duration                    : 1 h 6 min
Bit rate mode               : Constant
Bit rate                    : 192 kb/s
Channel(s)                  : 2 channels
Channel layout              : L R
Sampling rate               : 48.0 kHz
Frame rate                  : 31.250 FPS (1536 SPF)
Bit depth                   : 16 bits
Compression mode            : Lossy
Stream size                 : 91.7 MiB (11%)
Alignment                   : Split accross interleaves
Interleave, duration        : 40  ms (1.00 video frame)
Interleave, preload duratio : 500  ms
Service kind                : Complete Main



Скриншоты:
[+] Всего файлов в раздаче - 5:
e01.Mesto.Vstrechi.avi817.65 MB
e02.Mesto.Vstrechi.avi865.43 MB
e03.Mesto.Vstrechi.avi812.88 MB
e04.Mesto.Vstrechi.avi912.18 MB
e05.Mesto.Vstrechi.avi1.01 GB

Показать еще раздачи по запросу место:
2019-07-08 U Место встречи изменить нельзя (1979) HDTV 1080i 31.23 GB ↑ 26 ↓ 37
2019-04-20 U Место встречи / The Place (2017) BDRip от MegaPeer | RUS-Transfer | Лицензия 1.46 GB ↑ 77 ↓ 18
2019-04-17 U Место встречи / The Place (2017) BDRip 720p | Лицензия 5.97 GB ↑ 168 ↓ 28
2019-04-17 U Место встречи / The Place (2017) BDRip от Twister & ExKinoRay | Лицензия 1.46 GB ↑ 51 ↓ 11
2019-04-17 U Место встречи / The Place (2017) BDRip 1080p | Лицензия 8.80 GB ↑ 47 ↓ 46
2018-12-26 U Закону тут не место / L'ora legale (2017) BDRip от ExKinoRay | iTunes 1.30 GB ↑ 120 ↓ 6
2018-12-24 U Закону тут не место / L'ora legale (2017) HDRip от Scarabey | iTunes 1.37 GB ↑ 90 ↓ 13

Отзывы
Зарегистрируйтесь чтобы добавить комментарий.
Обратная связь
Copyleft ©