↑↓Torrent.by
Поиск
Логин: Регистрация
Пароль: Восстановить пароль
Загрузка...

Прогулка. Наездница. Родео. / Walk. Ride. Rodeo. (2019) WEBRip 1080p | HDRezka Studio

Скачать progulka-naezdnica-rodeo-walk-ride-2019-webrip-1080p-hdrezka-studio.torrent
U Магнитная ссылка Размер: 2.22 GB Раздают: 67 Качают: 27 Добавлен: 2019-07-08 18:57:43
Прогулка. Наездница. Родео. / Walk. Ride. Rodeo. (2019) WEBRip 1080p | HDRezka Studio

Название: Прогулка. Наездница. Родео.
Оригинальное название: Walk. Ride. Rodeo.
Год выхода: 2019
Жанр: спорт, драма
Режиссер: Конор Эллин
В ролях: Мисси Пайл, Аливия Элин Линд, Кэтлин Роуз Перкинс, Спенсер Лок, Бэйли Чейз, Барбара Элин Вудс, Шерри Шеперд, Макс Эрих, Ралей Кэйн, Кеннет Миллер

О фильме:
Фильм, основанный на реальных событиях, рассказывает о титулованной наезднице Эмберли Снайдер. В 19-летнем возрасте звезда родео попала в автомобильную катастрофу, чудом оставшись в живых. После аварии Эмберли оказалась парализованной ниже талии, а врачи с уверенностью утверждали, что она не сможет больше ходить. Однако неутешительные прогнозы докторов лишь раззадорили прикованную к инвалидному креслу девушку, которая пообещала вновь сесть на лошадь и вернуться в мир конного спорта.

Страна: США
Студия: Pokeprod
Продолжительность: 01:39:50
Перевод: Профессиональный многоголосый, закадровый [HDRezka Studio]

Файл
Кодек: H.264
Качество: WEBRip 1080p
Видео: AVC, 1920x1080 (16:9), 24 fps ~ 2295 Kbps
Звук:
AC3, 48 KHz, 2 ch ~ 192 Kb/s (русский)
E-AC3, 48 KHz, 6 ch ~ 640 Kb/s (английский)
Субтитры: английские


[+] MI:

Общее
Уникальный идентификатор : 250374532514924091143107027378144656545 (0xBC5C6185D2FCDABA8D12F589E749BCA1)
Полное имя : Q:TorFWalk.Ride.Rodeo.2019.1080p-iNTENSO.mkv
Формат : Matroska
Версия формата : Version 2
Размер файла : 2,22 Гбайт
Продолжительность : 1 ч. 39 м.
Режим общего битрейта : Переменный
Общий поток : 3190 Кбит/сек
Дата кодирования : UTC 2019-07-07 18:51:58
Программа кодирования : mkvmerge v5.4.0 ('Piper') built on Mar 10 2012 13:34:39
Библиотека кодирования : libebml v1.2.3 + libmatroska v1.3.0
DURATION : 01:39:50.400000000
NUMBER_OF_FRAMES : 187200
NUMBER_OF_BYTES : 143769600
_STATISTICS_WRITING_APP : mkvmerge v20.0.0 ('I Am The Sun') 64-bit
_STATISTICS_WRITING_DATE_UTC : 2019-07-06 18:01:29
_STATISTICS_TAGS : BPS DURATION NUMBER_OF_FRAMES NUMBER_OF_BYTES

Видео
Идентификатор : 1
Формат : AVC
Формат/Информация : Advanced Video Codec
Профиль формата : High@L4.0
Параметр CABAC формата : Да
Параметр ReFrames формата : 4 кадра
Идентификатор кодека : V_MPEG4/ISO/AVC
Продолжительность : 1 ч. 39 м.
Вид битрейта : Переменный
Битрейт : 2295 Кбит/сек
Максимальный битрейт : 20,0 Мбит/сек
Ширина : 1920 пикселей
Высота : 1080 пикселей
Соотношение сторон : 16:9
Частота кадров : 24,000 кадра/сек
Цветовое пространство : YUV
Субдискретизация насыщенности : 4:2:0
Битовая глубина : 8 бит
Тип развёртки : Прогрессивная
Бит/(Пиксели*Кадры) : 0.046
Размер потока : 1,60 Гбайт (72%)
Библиотека кодирования : x264 core 148 r2715 7e75228
Настройки программы : cabac=1 / ref=4 / deblock=1:0:0 / analyse=0x3:0x111 / me=umh / subme=10 / psy=1 / psy_rd=1.00:0.00 / mixed_ref=1 / me_range=120 / chroma_me=1 / trellis=2 / 8x8dct=1 / cqm=0 / deadzone=21,11 / fast_pskip=1 / chroma_qp_offset=-2 / threads=8 / lookahead_threads=2 / sliced_threads=0 / nr=0 / decimate=1 / interlaced=0 / bluray_compat=0 / stitchable=1 / constrained_intra=0 / bframes=16 / b_pyramid=2 / b_adapt=2 / b_bias=0 / direct=3 / weightb=1 / open_gop=0 / weightp=2 / keyint=240 / keyint_min=121 / scenecut=0 / intra_refresh=0 / rc_lookahead=240 / rc=crf / mbtree=1 / crf=20.0 / qcomp=0.50 / qpmin=6 / qpmax=51 / qpstep=4 / vbv_maxrate=20000 / vbv_bufsize=25000 / crf_max=0.0 / nal_hrd=vbr / filler=0 / ip_ratio=1.40 / aq=1:0.80
Язык : English
Default : Да
Forced : Нет

Аудио #1
Идентификатор : 2
Формат : AC-3
Формат/Информация : Audio Coding 3
Расширение режима : CM (complete main)
Идентификатор кодека : A_AC3
Продолжительность : 1 ч. 39 м.
Вид битрейта : Постоянный
Битрейт : 192 Кбит/сек
Каналы : 2 канала
Расположение каналов : Front: L R
Частота : 48,0 КГц
Битовая глубина : 16 бит
Метод сжатия : С потерями
Размер потока : 137 Мбайт (6%)
Заголовок : MVO HDRezka Studio
Язык : Russian
Default : Да
Forced : Нет

Аудио #2
Идентификатор : 3
Формат : E-AC-3
Формат/Информация : Audio Coding 3
Идентификатор кодека : A_EAC3
Продолжительность : 1 ч. 39 м.
Вид битрейта : Постоянный
Битрейт : 640 Кбит/сек
Каналы : 6 каналов
Расположение каналов : Front: L C R, Side: L R, LFE
Частота : 48,0 КГц
Метод сжатия : С потерями
Размер потока : 457 Мбайт (20%)
Язык : English
Default : Нет
Forced : Нет

Текст
Идентификатор : 4
Формат : UTF-8
Идентификатор кодека : S_TEXT/UTF8
Идентификатор кодека/Информация : UTF-8 Plain Text
Заголовок : English
Язык : English
Default : Нет
Forced : Нет



Скриншоты:
[+] Всего файлов в раздаче - 1:
Walk.Ride.Rodeo.2019.1080p-iNTENSO.mkv2.22 GB

Показать еще раздачи по запросу прогулка:
2019-02-03 U Прогулка по эшафоту (1992) VHSRip | Полная версия 2.05 GB ↑ 87 ↓ 20
2018-12-31 U Большая прогулка / La Grande Vadrouille (1966) BDRip 1080p от HDReactor | 50th Anniversary Edition | D, P 15.52 GB ↑ 56 ↓ 59
2018-02-18 U Прогулка с Богами: Два мира / Along with the Gods: The Two Worlds (2017) HDTVRip-AVC от Batafurai Team и SOUND-GROUP | L2 2.05 GB ↑ 158 ↓ 37
2018-02-18 U Прогулка с Богами: Два мира / Along with the Gods: The Two Worlds (2017) 1080p HDTVRip от Batafurai Team и SOUND-GROUP | L2 5.44 GB ↑ 49 ↓ 20
2018-01-16 U Прогулка среди могил / A Walk Among the Tombstones (2014) BDRip от HQCLUB 1К2.18 GB ↑ 85 ↓ 31
2018-01-16 U Прогулка среди могил / A Walk Among the Tombstones (2014) BDRip 720p от HELLYWOOD | D, P, A 5.38 GB ↑ 59 ↓ 29
2016-03-14 U Прогулка среди могил / A Walk Among the Tombstones (2014) BDRip-AVC | D 1.56 GB ↑ 53 ↓ 13

Отзывы
Зарегистрируйтесь чтобы добавить комментарий.
Обратная связь
Copyleft ©